<?xml version="1.0" standalone="no"?>
<!DOCTYPE svg PUBLIC "-//W3C//DTD SVG 1.1//EN" "http://www.w3.org/Graphics/SVG/1.1/DTD/svg11.dtd" >
<svg xmlns="http://www.w3.org/2000/svg" xmlns:xlink="http://www.w3.org/1999/xlink" version="1.1">
<metadata>
Created by FontForge 20161013 at Thu Jun  5 16:28:24 2014
 By ,,,
Digitized data copyright (c) 2012-2014, The Mozilla Foundation and Telefonica S.A.
</metadata>
<defs>
<font id="FiraSans-Light" horiz-adv-x="560" >
  <font-face 
    font-family="Fira Sans Light"
    font-weight="300"
    font-stretch="normal"
    units-per-em="1000"
    panose-1="2 11 4 3 5 0 0 2 0 4"
    ascent="785"
    descent="-215"
    x-height="523"
    cap-height="685"
    bbox="-167 -500 1360 1050"
    underline-thickness="0"
    underline-position="0"
    unicode-range="U+000D-1F310"
  />
<missing-glyph horiz-adv-x="666" 
d="M123 -500v1550h420v-1550h-420zM178 -448h311v1446h-311v-1446zM409.5 419q25.5 -32 25.5 -83q0 -53 -22.5 -82t-72.5 -36v-45q0 -11 -7.5 -17.5t-17.5 -6.5t-17.5 6.5t-7.5 17.5v84q53 3 72 19.5t19 57.5q0 33 -13 51t-48 18q-29 0 -52 -11q-8 -3 -13 -3
q-11 0 -17.5 6.5t-6.5 16.5q0 19 29.5 29t63.5 10q60 0 85.5 -32zM340 110q10 -10 10 -25q0 -16 -10 -26.5t-25 -10.5t-25 10.5t-10 26.5q0 15 10 25t25 10t25 -10z" />
    <glyph glyph-name="fi" unicode="fi" horiz-adv-x="567" 
d="M412 706l-21 -42q-65 30 -124 30q-51 0 -74 -20.5t-23 -68.5v-82h291v-523h-58v476h-233v-476h-58v476h-87v47h87v85q0 65 39 100t114 35q76 0 147 -37z" />
    <glyph glyph-name="fl" unicode="fl" horiz-adv-x="588" 
d="M495 -11q-44 0 -67.5 25t-23.5 76v582q-36 12 -66.5 17.5t-66.5 5.5q-53 0 -77 -21t-24 -67v-84h138l-8 -47h-130v-476h-58v476h-87v47h87v86q0 63 40 98.5t115 35.5q38 0 69 -5.5t68 -16.5l58 7v-638q0 -26 10 -38.5t33 -12.5q21 0 36 7l16 -43q-33 -14 -62 -14z" />
    <glyph glyph-name=".notdef" horiz-adv-x="666" 
d="M123 -500v1550h420v-1550h-420zM178 -448h311v1446h-311v-1446zM409.5 419q25.5 -32 25.5 -83q0 -53 -22.5 -82t-72.5 -36v-45q0 -11 -7.5 -17.5t-17.5 -6.5t-17.5 6.5t-7.5 17.5v84q53 3 72 19.5t19 57.5q0 33 -13 51t-48 18q-29 0 -52 -11q-8 -3 -13 -3
q-11 0 -17.5 6.5t-6.5 16.5q0 19 29.5 29t63.5 10q60 0 85.5 -32zM340 110q10 -10 10 -25q0 -16 -10 -26.5t-25 -10.5t-25 10.5t-10 26.5q0 15 10 25t25 10t25 -10z" />
    <glyph glyph-name=".null" horiz-adv-x="0" 
 />
    <glyph glyph-name="nonmarkingreturn" horiz-adv-x="333" 
 />
    <glyph glyph-name="CR" unicode="&#xd;" horiz-adv-x="279" 
 />
    <glyph glyph-name="space" unicode=" " horiz-adv-x="279" 
 />
    <glyph glyph-name="exclam" unicode="!" horiz-adv-x="240" 
d="M93 218l-5 467h62l-4 -467h-53zM154.5 70.5q13.5 -13.5 13.5 -33.5t-13.5 -34t-34.5 -14q-20 0 -34 14t-14 34t14 33.5t34 13.5q21 0 34.5 -13.5z" />
    <glyph glyph-name="quotedbl" unicode="&#x22;" horiz-adv-x="362" 
d="M291 685l-9 -251h-44l-9 251h62zM133 685l-9 -251h-44l-9 251h62z" />
    <glyph glyph-name="numbersign" unicode="#" horiz-adv-x="503" 
d="M380 227h71v-47h-77l-24 -180h-54l24 180h-179l-24 -180h-54l24 180h-72v47h78l30 225h-71v47h77l22 166h54l-22 -166h179l22 166h54l-22 -166h72v-47h-78zM177 452l-30 -225h179l30 225h-179z" />
    <glyph glyph-name="dollar" unicode="$" horiz-adv-x="526" 
d="M423 53q-49 -52 -134 -62v-142h-51v140q-117 4 -199 83l35 37q36 -34 78.5 -52t97.5 -18q72 0 117 37.5t45 103.5q0 40 -14.5 66t-48 45t-95.5 38q-102 32 -145.5 72.5t-43.5 109.5q0 67 47.5 112t125.5 51v145h51v-145q50 -4 88 -22t74 -51l-35 -37q-35 33 -71.5 47
t-83.5 14q-61 0 -98.5 -30t-37.5 -82q0 -35 14 -57.5t46.5 -40.5t93.5 -36q66 -21 107 -44t63.5 -60t22.5 -93q0 -77 -49 -129z" />
    <glyph glyph-name="percent" unicode="%" horiz-adv-x="793" 
d="M189 -24l-42 28l463 699l43 -27zM311 632q41 -44 41 -118t-40.5 -118.5t-108.5 -44.5q-67 0 -108.5 44t-41.5 118t41 118.5t109 44.5q67 0 108 -44zM130 600q-23 -34 -23 -87q0 -52 23 -86t73 -34t72.5 34t22.5 87q0 52 -22.5 86t-72.5 34t-73 -34zM698.5 270
q41.5 -44 41.5 -117q0 -75 -41 -119.5t-109 -44.5q-66 0 -107.5 44.5t-41.5 117.5q0 75 40.5 119t108.5 44q67 0 108.5 -44zM518 238q-23 -34 -23 -87q0 -52 23 -86t72 -34q50 0 73 34t23 88q0 51 -23 85t-73 34q-49 0 -72 -34z" />
    <glyph glyph-name="ampersand" unicode="&#x26;" horiz-adv-x="743" 
d="M420.5 654.5q46.5 -41.5 46.5 -106.5q0 -57 -37.5 -99t-115.5 -85l205 -192q44 90 66 190l55 -16q-32 -120 -85 -209l124 -114l-43 -34l-112 105q-43 -51 -96.5 -78t-127.5 -27q-59 0 -107 22.5t-75.5 64t-27.5 95.5q0 64 36 110.5t108 88.5q-55 52 -78 88.5t-23 85.5
q0 66 46 109t122 43q73 0 119.5 -41.5zM221 620.5q-30 -30.5 -30 -75.5q0 -38 18.5 -68.5t70.5 -80.5q67 37 98.5 71.5t31.5 78.5q0 49 -30.5 77t-78.5 28q-50 0 -80 -30.5zM179.5 262.5q-29.5 -39.5 -29.5 -89.5q0 -61 43.5 -98.5t111.5 -37.5q60 0 103 22.5t80 67.5
l-219 211q-60 -36 -89.5 -75.5z" />
    <glyph glyph-name="quotesingle" unicode="'" horiz-adv-x="204" 
d="M133 685l-9 -251h-44l-9 251h62z" />
    <glyph glyph-name="parenleft" unicode="(" horiz-adv-x="324" 
d="M185 672.5q-32 -61.5 -51.5 -140.5t-19.5 -182t19.5 -182t51.5 -140.5t85 -140.5l-37 -24q-62 87 -97.5 149t-58.5 145t-23 193t23 193t58.5 145t97.5 149l37 -24q-53 -79 -85 -140.5z" />
    <glyph glyph-name="parenright" unicode=")" horiz-adv-x="324" 
d="M188.5 688q35.5 -62 58.5 -145t23 -193t-23 -193t-58.5 -145t-97.5 -149l-37 24q53 79 85 140.5t51.5 140.5t19.5 182t-19.5 182t-51.5 140.5t-85 140.5l37 24q62 -87 97.5 -149z" />
    <glyph glyph-name="asterisk" unicode="*" horiz-adv-x="436" 
d="M349 420l-46 -34l-85 132l-85 -132l-46 33l99 122l-152 41l17 52l146 -57l-8 159h57l-7 -159l145 57l18 -52l-152 -40z" />
    <glyph glyph-name="plus" unicode="+" horiz-adv-x="493" 
d="M424 356v-50h-150v-152h-55v152h-150v50h150v152h55v-152h150z" />
    <glyph glyph-name="comma" unicode="," horiz-adv-x="207" 
d="M137.5 70.5q13.5 -13.5 13.5 -33.5q0 -22 -15 -55l-56 -133h-42l40 147q-11 6 -17 17t-6 24q0 20 14 33.5t34 13.5q21 0 34.5 -13.5z" />
    <glyph glyph-name="hyphen" unicode="-" horiz-adv-x="401" 
d="M333 338v-50h-265v50h265z" />
    <glyph glyph-name="period" unicode="." horiz-adv-x="207" 
d="M137.5 70.5q13.5 -13.5 13.5 -33.5q0 -21 -13.5 -34.5t-34.5 -13.5q-20 0 -34 14t-14 34t14 33.5t34 13.5q21 0 34.5 -13.5z" />
    <glyph glyph-name="slash" unicode="/" horiz-adv-x="520" 
d="M169 -100l-50 13l232 890l50 -12z" />
    <glyph glyph-name="zero" unicode="0" horiz-adv-x="550" 
d="M431 588.5q53 -87.5 53 -256.5q0 -168 -53.5 -255.5t-155.5 -87.5q-103 0 -156 87.5t-53 256.5t53 256t156 87t156 -87.5zM126 333q0 -296 149 -296q73 0 110.5 72t37.5 223t-37.5 223.5t-110.5 72.5q-149 0 -149 -295z" />
    <glyph glyph-name="one" unicode="1" horiz-adv-x="413" 
d="M234 0v601l-164 -102l-27 43l199 123h50v-665h-58z" />
    <glyph glyph-name="two" unicode="2" horiz-adv-x="479" 
d="M358.5 627q49.5 -49 49.5 -126q0 -65 -27 -122t-84.5 -125t-185.5 -203h315l-8 -51h-375v49q137 146 196.5 216.5t84 122t24.5 110.5t-34.5 94t-91.5 35q-46 0 -81.5 -19t-66.5 -57l-41 30q40 49 86.5 72t105.5 23q84 0 133.5 -49z" />
    <glyph glyph-name="three" unicode="3" horiz-adv-x="486" 
d="M318.5 654q41.5 -22 63.5 -59.5t22 -84.5q0 -65 -36.5 -105.5t-95.5 -50.5q66 -3 108.5 -46.5t42.5 -119.5q0 -58 -26 -103t-74.5 -70.5t-111.5 -25.5q-116 0 -191 86l37 33q34 -37 70.5 -53.5t81.5 -16.5q72 0 113 41t41 108q0 140 -150 140h-44l8 47h32q57 0 97 34.5
t40 98.5q0 55 -35 87.5t-93 32.5q-42 0 -77 -14.5t-71 -47.5l-31 36q40 38 84 56.5t98 18.5q56 0 97.5 -22z" />
    <glyph glyph-name="four" unicode="4" horiz-adv-x="518" 
d="M393 175v-175h-57v175h-291v43l203 458l49 -20l-190 -433h230l6 195h50v-195h90v-48h-90z" />
    <glyph glyph-name="five" unicode="5" horiz-adv-x="487" 
d="M135 617v-227q55 31 114 31q86 0 136.5 -55.5t50.5 -151.5q0 -65 -26.5 -116.5t-75 -80t-112.5 -28.5q-111 0 -188 80l37 35q31 -34 67 -50t84 -16q71 0 112 47.5t41 129.5q0 80 -37.5 119.5t-101.5 39.5q-32 0 -56.5 -7.5t-54.5 -24.5h-46v323h335l-9 -48h-270z" />
    <glyph glyph-name="six" unicode="6" horiz-adv-x="524" 
d="M423 379.5q50 -53.5 50 -155.5q0 -71 -25.5 -124.5t-70 -82t-100.5 -28.5q-110 0 -160.5 84.5t-50.5 226.5q0 115 29 200t83 130.5t128 45.5q67 0 124 -39l-25 -40q-48 31 -100 31q-82 0 -129.5 -81t-50.5 -213q67 99 171 99q77 0 127 -53.5zM378.5 87.5
q35.5 50.5 35.5 134.5q0 83 -34.5 123t-91.5 40q-50 0 -91.5 -29.5t-71.5 -80.5q3 -116 39 -177t113 -61q66 0 101.5 50.5z" />
    <glyph glyph-name="seven" unicode="7" horiz-adv-x="437" 
d="M139 -8l-54 18l256 606h-311v49h371v-45z" />
    <glyph glyph-name="eight" unicode="8" horiz-adv-x="538" 
d="M449 279.5q36 -41.5 36 -106.5q0 -55 -27.5 -96.5t-77 -64.5t-113.5 -23t-112.5 23t-75 64.5t-26.5 95.5q0 129 143 184q-60 27 -87 63t-27 91q0 51 26 89t69 57.5t92 19.5t92 -19t69.5 -56t26.5 -90q0 -52 -29 -89.5t-92 -68.5q77 -32 113 -73.5zM167.5 433
q27.5 -28 95.5 -53l31 -11q55 29 80 61.5t25 78.5q0 57 -35.5 89t-94.5 32q-57 0 -93 -32t-36 -89q0 -48 27.5 -76zM381.5 73.5q42.5 35.5 42.5 99.5q0 40 -15 66.5t-46 46t-87 40.5l-34 13q-67 -26 -97.5 -66t-30.5 -101q0 -64 42 -99t112 -35q71 0 113.5 35.5z" />
    <glyph glyph-name="nine" unicode="9" horiz-adv-x="518" 
d="M406.5 605.5q50.5 -70.5 50.5 -197.5q0 -129 -37 -211t-108.5 -131t-188.5 -85l-15 45q138 42 210 114.5t79 200.5q-29 -44 -70.5 -68.5t-92.5 -24.5q-52 0 -93 25.5t-64.5 73t-23.5 111.5q0 66 26.5 115.5t72.5 76t103 26.5q101 0 151.5 -70.5zM329 321.5
q37 25.5 69 74.5q1 119 -33 175.5t-108 56.5q-67 0 -105.5 -44.5t-38.5 -126.5q0 -77 35.5 -119t95.5 -42q48 0 85 25.5z" />
    <glyph glyph-name="colon" unicode=":" horiz-adv-x="207" 
d="M137.5 70.5q13.5 -13.5 13.5 -33.5q0 -21 -13.5 -34.5t-34.5 -13.5q-20 0 -34 14t-14 34t14 33.5t34 13.5q21 0 34.5 -13.5zM137.5 460.5q13.5 -13.5 13.5 -33.5q0 -21 -13.5 -34.5t-34.5 -13.5q-20 0 -34 14t-14 34t14 33.5t34 13.5q21 0 34.5 -13.5z" />
    <glyph glyph-name="semicolon" unicode=";" horiz-adv-x="207" 
d="M137.5 70.5q13.5 -13.5 13.5 -33.5q0 -22 -15 -55l-56 -133h-42l40 147q-11 6 -17 17t-6 24q0 20 14 33.5t34 13.5q21 0 34.5 -13.5zM137.5 460.5q13.5 -13.5 13.5 -33.5q0 -21 -13.5 -34.5t-34.5 -13.5q-20 0 -34 14t-14 34t14 33.5t34 13.5q21 0 34.5 -13.5z" />
    <glyph glyph-name="less" unicode="&#x3c;" horiz-adv-x="497" 
d="M115 333l318 -150l-21 -48l-348 171v54l348 169l21 -49z" />
    <glyph glyph-name="equal" unicode="=" horiz-adv-x="493" 
d="M424 443v-51h-355v51h355zM424 269v-51h-355v51h355z" />
    <glyph glyph-name="greater" unicode="&#x3e;" horiz-adv-x="497" 
d="M433 306l-348 -171l-21 48l317 150l-317 147l21 49l348 -169v-54z" />
    <glyph glyph-name="question" unicode="?" horiz-adv-x="447" 
d="M327 676q39 -20 59.5 -53t20.5 -73q0 -36 -13 -61.5t-31.5 -42.5t-49.5 -39q-30 -21 -47.5 -37t-29.5 -40t-12 -57v-55h-57v59q0 42 14 71.5t34 48t52 40.5q40 27 59.5 50t19.5 60q0 46 -31 72.5t-84 26.5q-45 0 -80.5 -17.5t-69.5 -56.5l-40 32q41 47 87.5 69.5
t105.5 22.5q54 0 93 -20zM232.5 70.5q13.5 -13.5 13.5 -33.5t-13.5 -34t-34.5 -14t-34.5 14t-13.5 34t13.5 33.5t34.5 13.5t34.5 -13.5z" />
    <glyph glyph-name="at" unicode="@" horiz-adv-x="1020" 
d="M748.5 643q92.5 -53 139.5 -141t47 -194q0 -144 -50 -220t-131 -76q-50 0 -81 31t-41 78q-22 -50 -58.5 -78.5t-89.5 -28.5q-48 0 -86.5 26t-60 75t-21.5 117q0 83 27.5 139.5t74.5 84.5t107 28q75 0 145 -36v-258q0 -131 83 -131q56 0 89.5 58t33.5 189q0 98 -40.5 175
t-119.5 121t-190 44q-113 0 -200 -54t-134.5 -146t-47.5 -204q0 -120 46.5 -210t133 -139t201.5 -49q97 0 189 34l16 -47q-52 -18 -98 -27t-108 -9q-128 0 -227.5 54t-155.5 155.5t-56 237.5q0 125 55.5 229t156 164.5t229.5 60.5q130 0 222.5 -53zM570.5 92
q32.5 32 45.5 74v253q-42 20 -89 20q-73 0 -113 -54t-40 -153q0 -84 31 -128t85 -44q48 0 80.5 32z" />
    <glyph glyph-name="A" unicode="A" horiz-adv-x="565" 
d="M137 187l-60 -187h-61l229 685h75l228 -685h-63l-60 187h-288zM282 636l-129 -398h256z" />
    <glyph glyph-name="B" unicode="B" horiz-adv-x="598" 
d="M500 313.5q44 -41.5 44 -123.5q0 -96 -65 -143t-181 -47h-187v685h153q119 0 183.5 -43t64.5 -128q0 -63 -34.5 -102t-91.5 -49q70 -8 114 -49.5zM171 384h138q64 0 103 33.5t39 92.5q0 67 -45.5 96t-135.5 29h-99v-251zM482 190q0 74 -45.5 110t-120.5 36h-145v-286h127
q184 0 184 140z" />
    <glyph glyph-name="C" unicode="C" horiz-adv-x="550" 
d="M439.5 680.5q39.5 -15.5 79.5 -47.5l-32 -40q-35 28 -67 40t-73 12q-97 0 -157.5 -74t-60.5 -228q0 -100 28 -168t76.5 -100.5t110.5 -32.5q48 0 81.5 14.5t69.5 43.5l32 -40q-73 -71 -185 -71q-80 0 -142.5 41t-98 120.5t-35.5 192.5t37 192.5t99.5 120t140.5 40.5
q57 0 96.5 -15.5z" />
    <glyph glyph-name="D" unicode="D" horiz-adv-x="632" 
d="M477.5 613q88.5 -72 88.5 -265t-89.5 -270.5t-218.5 -77.5h-147v685h136q142 0 230.5 -72zM171 50h91q241 0 241 298q0 118 -35 181t-88.5 84.5t-124.5 21.5h-84v-585z" />
    <glyph glyph-name="E" unicode="E" horiz-adv-x="512" 
d="M171 635v-255h243v-50h-243v-280h295v-50h-355v685h348l-7 -50h-281z" />
    <glyph glyph-name="F" unicode="F" horiz-adv-x="481" 
d="M171 635v-267h237v-50h-237v-318h-60v685h342l-7 -50h-275z" />
    <glyph glyph-name="G" unicode="G" horiz-adv-x="618" 
d="M452.5 679.5q43.5 -16.5 87.5 -51.5l-36 -37q-37 28 -72 41t-81 13q-58 0 -108.5 -31t-82 -98.5t-31.5 -170.5q0 -153 58 -229t162 -76q80 0 144 36v243h-134l-7 50h200v-324q-96 -56 -206 -56q-85 0 -148 40t-97.5 120t-34.5 196q0 112 40 191.5t105 119.5t139 40
q59 0 102.5 -16.5z" />
    <glyph glyph-name="H" unicode="H" horiz-adv-x="670" 
d="M171 335v-335h-60v685h60v-299h328v299h60v-685h-60v335h-328z" />
    <glyph glyph-name="I" unicode="I" horiz-adv-x="282" 
d="M111 0v685h60v-685h-60z" />
    <glyph glyph-name="J" unicode="J" horiz-adv-x="291" 
d="M169.5 -7.5q-15.5 -38.5 -48.5 -63.5t-92 -48l-16 44q46 20 70 41.5t33 51t9 77.5v590h60v-593q0 -61 -15.5 -99.5z" />
    <glyph glyph-name="K" unicode="K" horiz-adv-x="547" 
d="M111 0v685h60v-685h-60zM547 0h-73l-299 367l286 318h69l-284 -315z" />
    <glyph glyph-name="L" unicode="L" horiz-adv-x="474" 
d="M457 54l-8 -54h-338v685h60v-631h286z" />
    <glyph glyph-name="M" unicode="M" horiz-adv-x="778" 
d="M643 0l-31 328q-19 192 -26 299l-172 -546h-57l-178 546q-3 -59 -23 -297l-30 -330h-57l65 685h83l170 -534l164 534h84l66 -685h-58z" />
    <glyph glyph-name="N" unicode="N" horiz-adv-x="673" 
d="M483 0l-323 619q8 -125 8 -236v-383h-57v685h77l325 -619q-8 116 -8 203v416h57v-685h-79z" />
    <glyph glyph-name="O" unicode="O" horiz-adv-x="691" 
d="M492 655.5q63 -40.5 98 -120.5t35 -193q0 -111 -34.5 -190.5t-97.5 -121t-148 -41.5q-83 0 -146 41t-98 120t-35 191q0 111 35 191t98.5 122t145.5 42q84 0 147 -40.5zM187 568.5q-58 -76.5 -58 -227.5q0 -149 58.5 -225t157.5 -76q103 0 160 75.5t57 226.5
q0 152 -57.5 227.5t-159.5 75.5q-100 0 -158 -76.5z" />
    <glyph glyph-name="P" unicode="P" horiz-adv-x="570" 
d="M459.5 634.5q65.5 -50.5 65.5 -154.5q0 -110 -68.5 -161.5t-187.5 -51.5h-98v-267h-60v685h161q122 0 187.5 -50.5zM412 353q50 37 50 126q0 84 -48.5 120.5t-142.5 36.5h-100v-320h98q93 0 143 37z" />
    <glyph glyph-name="Q" unicode="Q" horiz-adv-x="681" 
d="M497 -27q-58 18 -152 18q-83 0 -146 40.5t-98 119t-35 190.5q0 111 35 191t98.5 122t145.5 42q84 0 147 -40.5t98 -120.5t35 -193q0 -255 -173 -318q57 -1 107.5 -17.5t89.5 -48.5l-40 -51q-54 48 -112 66zM187.5 116q58.5 -76 157.5 -76q103 0 160 75.5t57 226.5
q0 152 -57.5 227.5t-159.5 75.5q-100 0 -158 -76.5t-58 -227.5q0 -149 58.5 -225z" />
    <glyph glyph-name="R" unicode="R" horiz-adv-x="590" 
d="M171 307v-307h-60v685h166q244 0 244 -186q0 -74 -39 -118t-114 -63l188 -318h-72l-176 307h-137zM457 499q0 70 -43 103.5t-139 33.5h-104v-280h114q172 0 172 143z" />
    <glyph glyph-name="S" unicode="S" horiz-adv-x="539" 
d="M375.5 677.5q45.5 -18.5 88.5 -57.5l-36 -39q-38 34 -75 49t-84 15q-64 0 -103 -31.5t-39 -84.5q0 -36 14.5 -59.5t48.5 -42t97 -37.5q68 -21 110 -45t65 -62t23 -96t-28 -103t-79.5 -70t-119.5 -25q-128 0 -219 86l36 39q39 -36 82 -55t100 -19q74 0 120.5 39t46.5 106
q0 42 -15.5 69t-50 46.5t-97.5 39.5q-105 32 -150 74t-45 114q0 48 25.5 86.5t71 60t104.5 21.5q63 0 108.5 -18.5z" />
    <glyph glyph-name="T" unicode="T" horiz-adv-x="495" 
d="M277 632v-632h-59v632h-203v53h470l-7 -53h-201z" />
    <glyph glyph-name="U" unicode="U" horiz-adv-x="652" 
d="M493 50.5q-58 -61.5 -167 -61.5q-111 0 -168 61t-57 164v471h60v-466q0 -86 40.5 -132t124.5 -46t124 46.5t40 131.5v466h61v-471q0 -102 -58 -163.5z" />
    <glyph glyph-name="V" unicode="V" horiz-adv-x="546" 
d="M240 0l-224 685h65l193 -623l194 623h62l-223 -685h-67z" />
    <glyph glyph-name="W" unicode="W" horiz-adv-x="810" 
d="M554 0l-150 618l-150 -618h-73l-151 685h61l130 -630l150 630h67l153 -630l131 630h57l-150 -685h-75z" />
    <glyph glyph-name="X" unicode="X" horiz-adv-x="512" 
d="M436 0l-182 330l-179 -330h-65l209 368l-188 317h68l156 -278l156 278h65l-186 -314l214 -371h-68z" />
    <glyph glyph-name="Y" unicode="Y" horiz-adv-x="523" 
d="M292 0h-60v267l-219 418h67l184 -365l181 365h64l-217 -417v-268z" />
    <glyph glyph-name="Z" unicode="Z" horiz-adv-x="516" 
d="M104 53h358l-8 -53h-419v50l367 583h-329v52h395v-49z" />
    <glyph glyph-name="bracketleft" unicode="[" horiz-adv-x="317" 
d="M138 759v-824h113v-47h-167v919h167v-48h-113z" />
    <glyph glyph-name="backslash" unicode="\" horiz-adv-x="520" 
d="M350 -100l-231 891l50 12l232 -890z" />
    <glyph glyph-name="bracketright" unicode="]" horiz-adv-x="317" 
d="M66 -112v47h113v824h-113v48h167v-919h-167z" />
    <glyph glyph-name="asciicircum" unicode="^" horiz-adv-x="531" 
d="M409 527l-144 248l-143 -248h-66l185 305h49l184 -305h-65z" />
    <glyph glyph-name="underscore" unicode="_" horiz-adv-x="520" 
d="M492 -71v-51h-463v51h463z" />
    <glyph glyph-name="grave" unicode="`" horiz-adv-x="274" 
d="M226 645l-196 85l26 52l188 -103z" />
    <glyph glyph-name="a" unicode="a" horiz-adv-x="536" 
d="M441.5 57q10.5 -18 33.5 -27l-13 -41q-36 8 -55.5 28t-25.5 59q-57 -87 -163 -87q-75 0 -118.5 42.5t-43.5 113.5q0 82 57.5 126t159.5 44h100v50q0 63 -28 91.5t-93 28.5q-60 0 -142 -30l-15 44q88 35 165 35q171 0 171 -166v-252q0 -41 10.5 -59zM373 130v142h-91
q-80 0 -122 -31t-42 -93q0 -54 29 -83t81 -29q96 0 145 94z" />
    <glyph glyph-name="b" unicode="b" horiz-adv-x="581" 
d="M462 464q50 -70 50 -200q0 -127 -52.5 -201t-146.5 -74q-47 0 -85.5 21t-65.5 56l-5 -66h-51v736l58 7v-293q61 84 157 84q91 0 141 -70zM411.5 94.5q38.5 57.5 38.5 169.5q0 222 -141 222q-46 0 -80 -23.5t-65 -66.5v-276q25 -39 60 -61t78 -22q71 0 109.5 57.5z" />
    <glyph glyph-name="c" unicode="c" horiz-adv-x="469" 
d="M365 521.5q35 -12.5 68 -40.5l-29 -39q-26 22 -53.5 32t-62.5 10q-74 0 -118 -57.5t-44 -167.5q0 -109 43.5 -164t117.5 -55q35 0 63.5 11t56.5 34l29 -40q-66 -56 -150 -56q-67 0 -117 32t-77.5 92.5t-27.5 144.5q0 83 27.5 145.5t77.5 96.5t116 34q45 0 80 -12.5z" />
    <glyph glyph-name="d" unicode="d" horiz-adv-x="585" 
d="M479 0h-50l-7 80q-24 -42 -63.5 -66.5t-93.5 -24.5q-91 0 -143.5 72.5t-52.5 197.5q0 81 24.5 143t71 97t109.5 35q89 0 147 -71v280l58 -7v-736zM358.5 61.5q34.5 24.5 62.5 72.5v273q-56 79 -137 79q-70 0 -111.5 -58.5t-41.5 -165.5q0 -108 37.5 -166t105.5 -59
q50 0 84.5 24.5z" />
    <glyph glyph-name="e" unicode="e" horiz-adv-x="538" 
d="M475 239h-349q5 -102 48.5 -151.5t114.5 -49.5q41 0 72.5 12.5t68.5 39.5l27 -37q-39 -32 -80 -48t-91 -16q-104 0 -163 71t-59 197q0 83 25.5 145.5t73 97t110.5 34.5q100 0 152 -67.5t52 -185.5q0 -22 -2 -42zM420 299q0 88 -36.5 137.5t-108.5 49.5q-64 0 -104.5 -50
t-45.5 -152h295v15z" />
    <glyph glyph-name="f" unicode="f" horiz-adv-x="321" 
d="M192.5 674q-22.5 -21 -22.5 -67v-84h138l-8 -47h-130v-476h-58v476h-91v47h91v86q0 62 38.5 98t106.5 36q61 0 122 -28l-20 -43q-52 23 -99 23q-45 0 -67.5 -21z" />
    <glyph glyph-name="g" unicode="g" horiz-adv-x="503" 
d="M350 497q89 -42 89 -142q0 -77 -51 -124.5t-138 -47.5q-39 0 -68 10q-19 -11 -29.5 -26.5t-10.5 -33.5q0 -54 83 -54h85q77 0 122.5 -37.5t45.5 -96.5q0 -72 -57 -111t-170 -39q-117 0 -167.5 35.5t-50.5 114.5h54q1 -38 16 -60t50 -32t98 -10q88 0 128 25.5t40 73.5
q0 42 -31 64.5t-87 22.5h-85q-62 0 -95.5 26t-33.5 66q0 26 15 49t42 40q-45 23 -66.5 59t-21.5 88q0 79 53 128t139 49q95 -1 138.5 7t90.5 27l18 -56q-48 -13 -145 -15zM149.5 453q-33.5 -36 -33.5 -96q0 -62 35.5 -97t96.5 -35q64 0 98 34.5t34 96.5q0 63 -33.5 98
t-98.5 35t-98.5 -36z" />
    <glyph glyph-name="h" unicode="h" horiz-adv-x="584" 
d="M445 491.5q38 -42.5 38 -117.5v-374h-58v366q0 121 -99 121q-50 0 -88.5 -27.5t-73.5 -80.5v-379h-58v736l58 7v-307q70 98 173 98q70 0 108 -42.5z" />
    <glyph glyph-name="i" unicode="i" horiz-adv-x="270" 
d="M106 0v523h58v-523h-58zM166 741q12 -12 12 -30t-12 -30t-32 -12q-19 0 -31 12t-12 30t12 30t31 12q20 0 32 -12z" />
    <glyph glyph-name="j" unicode="j" horiz-adv-x="270" 
d="M149 -89.5q-15 -40.5 -44 -65t-82 -48.5l-17 42q38 19 58.5 37.5t31 51t10.5 89.5v506h58v-504q0 -68 -15 -108.5zM166 741q12 -12 12 -30t-12 -30t-32 -12q-19 0 -31 12t-12 30t12 30t31 12q20 0 32 -12z" />
    <glyph glyph-name="k" unicode="k" horiz-adv-x="488" 
d="M106 0v736l58 7v-743h-58zM480 0h-70l-240 286l220 237h67l-220 -234z" />
    <glyph glyph-name="l" unicode="l" horiz-adv-x="284" 
d="M169 51.5q10 -12.5 33 -12.5q20 0 35 7l16 -43q-31 -14 -62 -14q-43 0 -66.5 25t-23.5 76v646l58 7v-653q0 -26 10 -38.5z" />
    <glyph glyph-name="m" unicode="m" horiz-adv-x="853" 
d="M715.5 491q36.5 -43 36.5 -117v-374h-58v366q0 62 -23.5 91.5t-65.5 29.5q-44 0 -79 -28t-68 -80v-379h-58v366q0 62 -23.5 91.5t-65.5 29.5q-45 0 -80 -28t-67 -80v-379h-58v523h50l5 -88q31 46 71.5 72.5t89.5 26.5q50 0 83.5 -27t45.5 -77q69 104 165 104
q63 0 99.5 -43z" />
    <glyph glyph-name="n" unicode="n" horiz-adv-x="584" 
d="M445.5 492q37.5 -42 37.5 -118v-374h-58v366q0 63 -25 92t-74 29q-50 0 -88.5 -27.5t-73.5 -80.5v-379h-58v523h50l5 -89q71 100 176 100q71 0 108.5 -42z" />
    <glyph glyph-name="o" unicode="o" horiz-adv-x="571" 
d="M448.5 462.5q58.5 -71.5 58.5 -199.5q0 -127 -59.5 -200.5t-162.5 -73.5q-104 0 -162.5 72.5t-58.5 199.5q0 83 27 145t77 95t118 33q104 0 162.5 -71.5zM168 428q-42 -57 -42 -167q0 -109 41.5 -166t117.5 -57t118.5 57t42.5 168q0 109 -41.5 165.5t-118.5 56.5
q-76 0 -118 -57z" />
    <glyph glyph-name="p" unicode="p" horiz-adv-x="581" 
d="M464.5 463.5q47.5 -70.5 47.5 -199.5q0 -126 -51.5 -200.5t-147.5 -74.5q-47 0 -85 19.5t-64 52.5v-258l-58 -8v728h50l5 -76q29 41 70 64t91 23q95 0 142.5 -70.5zM412 95q38 57 38 169q0 222 -139 222q-47 0 -81.5 -24t-65.5 -66v-278q25 -38 60 -59t78 -21
q72 0 110 57z" />
    <glyph glyph-name="q" unicode="q" horiz-adv-x="580" 
d="M474 -205l-58 8v274q-24 -40 -63.5 -64t-92.5 -24q-91 0 -143.5 72.5t-52.5 197.5q0 81 25 143t71.5 97t109.5 35q90 0 150 -74l4 63h50v-728zM354 61q34 24 62 72v274q-54 79 -136 79q-71 0 -112.5 -58.5t-41.5 -165.5q0 -108 38 -166t106 -59q50 0 84 24z" />
    <glyph glyph-name="r" unicode="r" horiz-adv-x="373" 
d="M361 528l-11 -55q-22 6 -46 6q-54 0 -86.5 -39t-53.5 -122v-318h-58v523h50l5 -117q21 65 57.5 96.5t90.5 31.5q31 0 52 -6z" />
    <glyph glyph-name="s" unicode="s" horiz-adv-x="464" 
d="M323 519.5q40 -14.5 78 -43.5l-28 -39q-35 26 -66.5 37.5t-70.5 11.5q-52 0 -84 -24t-32 -64q0 -38 27.5 -59t99.5 -40q89 -23 128.5 -58t39.5 -100q0 -70 -54 -111t-135 -41q-60 0 -105 17.5t-82 49.5l33 38q34 -28 70.5 -42t82.5 -14q58 0 93.5 26.5t35.5 72.5
q0 33 -12 53t-41 34t-85 30q-83 22 -119.5 55.5t-36.5 88.5q0 39 23 70t62.5 48.5t88.5 17.5t89 -14.5z" />
    <glyph glyph-name="t" unicode="t" horiz-adv-x="341" 
d="M234 -11q-60 0 -94 35.5t-34 102.5v349h-88v47h88v125l58 7v-132h135l-7 -47h-128v-346q0 -46 19 -68.5t58 -22.5q41 0 80 24l23 -41q-50 -33 -110 -33z" />
    <glyph glyph-name="u" unicode="u" horiz-adv-x="579" 
d="M423 0l-3 93q-62 -104 -171 -104q-71 0 -109.5 41.5t-38.5 118.5v374h58v-368q0 -61 25.5 -89.5t77.5 -28.5q91 0 153 107v379h58v-523h-50z" />
    <glyph glyph-name="v" unicode="v" horiz-adv-x="470" 
d="M202 0l-187 523h64l159 -472l155 472h62l-181 -523h-72z" />
    <glyph glyph-name="w" unicode="w" horiz-adv-x="698" 
d="M467 0l-116 469l-118 -469h-77l-131 523h60l112 -478l122 478h66l120 -479l111 479h57l-128 -523h-78z" />
    <glyph glyph-name="x" unicode="x" horiz-adv-x="459" 
d="M378 0l-151 243l-150 -243h-67l184 278l-160 245h68l128 -209l129 209h66l-161 -243l184 -280h-70z" />
    <glyph glyph-name="y" unicode="y" horiz-adv-x="468" 
d="M227 -102q-25 -39 -65 -64.5t-103 -37.5l-6 45q52 13 81.5 32t47 47.5t35.5 79.5h-20l-182 523h63l158 -480l155 480h61l-179 -525q-21 -61 -46 -100z" />
    <glyph glyph-name="z" unicode="z" horiz-adv-x="422" 
d="M96 50h290l-6 -50h-352v45l292 428h-268v50h336v-45z" />
    <glyph glyph-name="braceleft" unicode="{" horiz-adv-x="326" 
d="M194.5 765.5q-20.5 -18.5 -20.5 -60.5v-254q0 -49 -17.5 -70.5t-57.5 -31.5q40 -11 57.5 -31.5t17.5 -70.5v-253q0 -42 20.5 -60.5t67.5 -18.5v-44q-74 0 -108 29.5t-34 95.5v255q0 39 -18.5 56t-57.5 17v50q39 0 57.5 17t18.5 57v255q0 66 34 95.5t108 29.5v-44
q-47 0 -67.5 -18.5z" />
    <glyph glyph-name="bar" unicode="|" horiz-adv-x="407" 
d="M176 -100v904h54v-904h-54z" />
    <glyph glyph-name="braceright" unicode="}" horiz-adv-x="326" 
d="M171.5 798.5q34.5 -29.5 34.5 -95.5v-255q0 -40 18.5 -57t57.5 -17v-50q-39 0 -57.5 -17t-18.5 -56v-255q0 -66 -34.5 -95.5t-107.5 -29.5v44q47 0 67.5 18.5t20.5 60.5v253q0 50 17.5 70.5t57.5 31.5q-40 10 -57.5 31.5t-17.5 70.5v254q0 42 -20.5 60.5t-67.5 18.5v44
q73 0 107.5 -29.5z" />
    <glyph glyph-name="asciitilde" unicode="~" horiz-adv-x="472" 
d="M207.5 362.5q20.5 -8.5 46.5 -24.5q20 -12 34 -18.5t27 -6.5q22 0 36 10.5t31 34.5l38 -21q-21 -34 -45.5 -53.5t-62.5 -19.5q-24 0 -43.5 8.5t-48.5 25.5q-22 12 -35 18t-26 6q-23 0 -37 -11.5t-32 -36.5l-39 21q22 36 47.5 56t63.5 20q25 0 45.5 -8.5z" />
    <glyph glyph-name="nonbreakingspace" unicode="&#xa0;" horiz-adv-x="280" 
 />
    <glyph glyph-name="exclamdown" unicode="&#xa1;" horiz-adv-x="240" 
d="M154.5 461q13.5 -14 13.5 -34t-13.5 -33.5t-34.5 -13.5t-34.5 13.5t-13.5 33.5t13.5 34t34.5 14t34.5 -14zM90 -197l5 446h52l5 -446h-62z" />
    <glyph glyph-name="cent" unicode="&#xa2;" horiz-adv-x="469" 
d="M311 -10v-140h-51v140q-91 10 -143.5 80t-52.5 188t53 192t144 83v147h50v-147q67 -6 122 -52l-29 -39q-26 22 -53.5 32t-62.5 10q-74 0 -118 -57.5t-44 -167.5q0 -109 43.5 -164t117.5 -55q35 0 63.5 11t56.5 34l29 -40q-56 -48 -125 -55z" />
    <glyph glyph-name="sterling" unicode="&#xa3;" horiz-adv-x="514" 
d="M177 96q-15 -26 -52 -45h328l-7 -51h-395v48q48 21 65.5 46t17.5 76v161h-65v43h65v126q0 77 45 126.5t127 49.5q51 0 90 -18t72 -57l-39 -31q-26 30 -54 43.5t-67 13.5q-56 0 -86 -34.5t-30 -93.5v-125h214v-43h-214v-160q0 -49 -15 -75z" />
    <glyph glyph-name="currency" unicode="&#xa4;" 
d="M432 215l79 -77l-36 -36l-80 78q-46 -34 -115 -34q-66 0 -115 36l-80 -80l-36 36l80 79q-39 53 -39 124t39 122l-80 80l36 36l80 -80q49 36 115 36q67 0 116 -35l79 79l36 -36l-78 -78q40 -51 40 -124q0 -72 -41 -126zM381.5 233q34.5 40 34.5 108t-34.5 108t-100.5 40
q-65 0 -100.5 -40t-35.5 -108t35.5 -108t100.5 -40q66 0 100.5 40z" />
    <glyph glyph-name="yen" unicode="&#xa5;" horiz-adv-x="512" 
d="M422 338v-43h-136v-103h136v-43h-136v-149h-59v149h-136v43h136v103h-136v43h117l-195 327h66l179 -313l178 313h63l-194 -327h117z" />
    <glyph glyph-name="brokenbar" unicode="&#xa6;" horiz-adv-x="407" 
d="M230 146h-54v412h54v-412z" />
    <glyph glyph-name="section" unicode="&#xa7;" horiz-adv-x="532" 
d="M412.5 124.5q13.5 -23.5 13.5 -56.5q0 -62 -49 -99t-126 -37q-89 0 -163 47l25 41q31 -21 64.5 -30.5t75.5 -9.5q52 0 83 23t31 60q0 27 -9.5 43.5t-35.5 31t-79 32.5q-58 20 -91.5 38t-50.5 43.5t-17 65.5q0 37 20.5 68.5t57.5 57.5q-28 18 -40.5 41t-12.5 56
q0 61 48 98t119 37q49 0 85.5 -12.5t72.5 -36.5l-24 -39q-33 21 -64.5 30.5t-70.5 9.5q-48 0 -78 -24t-30 -60q0 -26 10.5 -42.5t37.5 -31.5t82 -33q83 -29 117.5 -61.5t34.5 -87.5q0 -71 -78 -121q28 -18 41.5 -41.5zM151 277q10 -18 35 -32t74 -31q44 -14 74 -28
q58 41 58 96q0 27 -9 44.5t-34.5 33t-74.5 32.5q-59 22 -75 30q-58 -43 -58 -99q0 -28 10 -46z" />
    <glyph glyph-name="dieresis" unicode="&#xa8;" horiz-adv-x="330" 
d="M98.5 730.5q11.5 -11.5 11.5 -28.5t-11.5 -28t-28.5 -11t-28.5 11t-11.5 28t11.5 28.5t28.5 11.5t28.5 -11.5zM287.5 730.5q11.5 -11.5 11.5 -28.5t-11.5 -28t-28.5 -11t-28.5 11t-11.5 28t11.5 28.5t28.5 11.5t28.5 -11.5z" />
    <glyph glyph-name="copyright" unicode="&#xa9;" horiz-adv-x="810" 
d="M555 696.5q68 -39.5 107.5 -108t39.5 -153.5t-39.5 -153.5t-107.5 -108t-150 -39.5q-83 0 -150.5 39t-107 108t-39.5 154q0 84 39.5 153t107.5 108.5t150 39.5t150 -39.5zM276.5 663q-57.5 -34 -90.5 -94t-33 -134q0 -75 32.5 -134.5t90.5 -93.5t130 -34q71 0 128.5 34
t90 94t32.5 134q0 75 -32.5 134.5t-89.5 93.5t-129 34t-129.5 -34zM462 607.5q24 -8.5 47 -26.5l-25 -33q-17 13 -34.5 19t-40.5 6q-41 0 -70 -32.5t-29 -104.5q0 -68 27 -103t72 -35q25 0 44.5 7.5t39.5 21.5l22 -33q-48 -40 -108 -40q-66 0 -107 49t-41 133q0 58 21 99
t54.5 61t72.5 20q31 0 55 -8.5z" />
    <glyph glyph-name="ordfeminine" unicode="&#xaa;" horiz-adv-x="500" 
d="M331 555q0 45 -21.5 64.5t-71.5 19.5q-49 0 -113 -22l-15 42q72 26 134 26q74 0 109 -31.5t35 -94.5v-184q0 -30 8 -42.5t25 -19.5l-12 -39q-30 5 -46.5 20t-22.5 44q-45 -64 -130 -64q-61 0 -96 32t-35 86q0 62 47 95.5t129 33.5h76v34zM331 384v97h-68q-124 0 -124 -86
q0 -37 21.5 -56.5t60.5 -19.5q71 0 110 65zM436 0h-355v51h355v-51z" />
    <glyph glyph-name="guillemotleft" unicode="&#xab;" horiz-adv-x="555" 
d="M134 288l137 -208l-36 -24l-164 212v39l164 213l36 -25zM347 288l137 -208l-36 -24l-164 212v39l164 213l36 -25z" />
    <glyph glyph-name="logicalnot" unicode="&#xac;" horiz-adv-x="499" 
d="M375 168v128h-306v51h361v-179h-55z" />
    <glyph glyph-name="softhyphen" unicode="&#xad;" horiz-adv-x="401" 
d="M333 338v-50h-265v50h265z" />
    <glyph glyph-name="registered" unicode="&#xae;" horiz-adv-x="639" 
d="M441 705.5q55 -31.5 87 -86.5t32 -122q0 -66 -32 -121t-87 -87t-122 -32q-66 0 -121 31.5t-86.5 86t-31.5 120.5t32 121.5t86.5 88t120.5 32.5q67 0 122 -31.5zM421 320q46 27 72.5 74t26.5 103q0 57 -26 103.5t-72 73t-103 26.5q-55 0 -100.5 -27.5t-72 -74.5
t-26.5 -103q0 -57 26.5 -103t72 -72.5t100.5 -26.5q56 0 102 27zM355 482l74 -118h-50l-65 111h-36v-111h-42v272h69q114 0 114 -81q0 -56 -64 -73zM317 510q59 0 59 45q0 25 -16 35.5t-49 10.5h-33v-91h39z" />
    <glyph glyph-name="macron" unicode="&#xaf;" horiz-adv-x="301" 
d="M30 723h241v-47h-241v47z" />
    <glyph glyph-name="degree" unicode="&#xb0;" horiz-adv-x="521" 
d="M145.5 413q-34.5 18 -55.5 52.5t-21 80.5q0 45 21 79t55.5 52.5t73.5 18.5q41 0 75.5 -18t55 -52.5t20.5 -80.5q0 -45 -20.5 -79t-55 -52.5t-75.5 -18.5q-39 0 -73.5 18zM290.5 467.5q27.5 28.5 27.5 77.5t-27.5 78t-71.5 29q-42 0 -70.5 -28.5t-28.5 -77.5t28.5 -78
t70.5 -29q44 0 71.5 28.5z" />
    <glyph glyph-name="plusminus" unicode="&#xb1;" horiz-adv-x="493" 
d="M424 51v-51h-355v51h355zM424 366v-50h-150v-152h-55v152h-150v50h150v152h55v-152h150z" />
    <glyph glyph-name="twosuperior" unicode="&#xb2;" horiz-adv-x="400" 
d="M288 710q34 -32 34 -81q0 -38 -17 -71.5t-54 -74.5t-116 -118h199l-7 -43h-252v41q86 86 124.5 128t54 72t15.5 62q0 35 -20.5 54.5t-55.5 19.5q-29 0 -50.5 -11t-41.5 -34l-35 26q27 32 59 47t72 15q57 0 91 -32z" />
    <glyph glyph-name="threesuperior" unicode="&#xb3;" horiz-adv-x="400" 
d="M291 714q34 -29 34 -75q0 -39 -23.5 -64t-62.5 -33q42 -2 69.5 -29t27.5 -74q0 -55 -39 -90t-105 -35q-78 0 -129 56l31 28q41 -42 95 -42q45 0 69.5 23t24.5 61q0 80 -91 80h-30l7 39h20q35 0 59.5 19t24.5 56q0 32 -21 50t-56 18q-27 0 -49 -9t-46 -29l-27 31
q28 24 58 36t67 12q58 0 92 -29z" />
    <glyph glyph-name="acute" unicode="&#xb4;" horiz-adv-x="275" 
d="M49 645l-19 34l188 103l26 -52z" />
    <glyph glyph-name="uni00B5" unicode="&#xb5;" horiz-adv-x="585" 
d="M428.5 44.5q-5.5 23.5 -8.5 57.5q-63 -113 -158 -113q-39 0 -68 16t-41 48q11 -59 11 -133v-117l-58 -6v726h58v-373q0 -57 28 -83.5t70 -26.5q93 0 152 117v366h58v-346q0 -100 27 -179l-53 -7q-12 30 -17.5 53.5z" />
    <glyph glyph-name="paragraph" unicode="&#xb6;" horiz-adv-x="708" 
d="M557 -197l-54 -9v842h-128v-833l-54 -9v500q-114 4 -167 57t-53 138q0 93 61 144t171 51l224 1v-882z" />
    <glyph glyph-name="periodcentered" unicode="&#xb7;" horiz-adv-x="207" 
d="M137.5 353q13.5 -14 13.5 -34t-13.5 -34t-34.5 -14q-20 0 -33.5 14t-13.5 34t13.5 34t33.5 14q21 0 34.5 -14z" />
    <glyph glyph-name="cedilla" unicode="&#xb8;" horiz-adv-x="245" 
d="M192.5 -88q22.5 -20 22.5 -52q0 -41 -30 -64t-75 -23q-48 0 -80 21l18 36q27 -15 61 -15q24 0 39.5 11t15.5 34q0 22 -21.5 33t-67.5 11l10 112h38v-80q47 -4 69.5 -24z" />
    <glyph glyph-name="onesuperior" unicode="&#xb9;" horiz-adv-x="400" 
d="M207 322v359l-103 -60l-23 36l133 79h44v-414h-51z" />
    <glyph glyph-name="ordmasculine" unicode="&#xba;" horiz-adv-x="500" 
d="M382 631.5q48 -53.5 48 -150.5q0 -96 -48.5 -151.5t-133.5 -55.5q-84 0 -132 54.5t-48 150.5q0 95 48.5 150.5t132.5 55.5q85 0 133 -53.5zM160 598.5q-32 -40.5 -32 -119.5q0 -78 31.5 -118.5t89.5 -40.5t89.5 40.5t31.5 120.5q0 79 -31 118.5t-89 39.5t-90 -40.5z
M427 51v-51h-355v51h355z" />
    <glyph glyph-name="guillemotright" unicode="&#xbb;" horiz-adv-x="546" 
d="M271 268l-164 -212l-36 24l138 208l-138 207l36 25l164 -213v-39zM474 268l-164 -212l-36 24l138 208l-138 207l36 25l164 -213v-39z" />
    <glyph glyph-name="onequarter" unicode="&#xbc;" horiz-adv-x="914" 
d="M208 272v359l-103 -60l-24 36l134 78h43v-413h-50zM274 -71l-41 20l408 798l40 -19zM805 103v-103h-50v103h-189v37l130 281l44 -17l-120 -259h135l5 115h45v-115h56v-42h-56z" />
    <glyph glyph-name="onehalf" unicode="&#xbd;" horiz-adv-x="914" 
d="M208 272v359l-103 -60l-24 36l134 78h43v-413h-50zM274 -71l-41 20l408 798l40 -19zM802 388q34 -32 34 -81q0 -38 -17 -71.5t-54 -74.5t-116 -118h199l-7 -43h-252v41q86 86 124.5 128t54 72t15.5 62q0 35 -20.5 54.5t-55.5 19.5q-29 0 -50.5 -11t-41.5 -34l-35 26
q27 32 59 47t72 15q57 0 91 -32z" />
    <glyph glyph-name="threequarters" unicode="&#xbe;" horiz-adv-x="914" 
d="M290.5 663.5q34.5 -29.5 34.5 -74.5q0 -40 -23.5 -65t-62.5 -32q43 -3 70.5 -29.5t27.5 -73.5q0 -55 -39.5 -90t-105.5 -35q-78 0 -129 56l32 28q39 -42 94 -42q46 0 70.5 23t24.5 61q0 79 -91 79h-30l6 40h21q35 0 59.5 19t24.5 56q0 32 -21.5 50t-56.5 18q-27 0 -49 -9
t-45 -29l-28 30q28 25 58 37t67 12q57 0 91.5 -29.5zM274 -71l-41 20l408 798l40 -19zM805 103v-103h-50v103h-189v37l130 281l44 -17l-120 -259h135l5 115h45v-115h56v-42h-56z" />
    <glyph glyph-name="questiondown" unicode="&#xbf;" horiz-adv-x="447" 
d="M215.5 393.5q-13.5 13.5 -13.5 33.5q0 21 13.5 34.5t34.5 13.5q20 0 33.5 -14t13.5 -34t-13.5 -33.5t-33.5 -13.5q-21 0 -34.5 13.5zM121 -186q-39 20 -59.5 52.5t-20.5 69.5t13.5 63.5t32.5 43.5t51 39q43 30 64 55t21 67v45h57v-49q0 -39 -13.5 -66t-32.5 -44t-51 -39
q-41 -28 -61 -51.5t-20 -61.5q0 -42 31 -68.5t83 -26.5q44 0 80 18t70 57l41 -32q-42 -47 -88.5 -69.5t-105.5 -22.5q-53 0 -92 20z" />
    <glyph glyph-name="Agrave" unicode="&#xc0;" horiz-adv-x="565" 
d="M137 187l-60 -187h-61l229 685h75l228 -685h-63l-60 187h-288zM282 636l-129 -398h256zM366 758l-198 78l26 52l188 -96z" />
    <glyph glyph-name="Aacute" unicode="&#xc1;" horiz-adv-x="565" 
d="M137 187l-60 -187h-61l229 685h75l228 -685h-63l-60 187h-288zM282 636l-129 -398h256zM195 758l-16 34l187 96l27 -52z" />
    <glyph glyph-name="Acircumflex" unicode="&#xc2;" horiz-adv-x="565" 
d="M137 187l-60 -187h-61l229 685h75l228 -685h-63l-60 187h-288zM282 636l-129 -398h256zM160 762l-26 30l130 102h36l129 -102l-26 -30l-121 80z" />
    <glyph glyph-name="Atilde" unicode="&#xc3;" horiz-adv-x="565" 
d="M137 187l-60 -187h-61l229 685h75l228 -685h-63l-60 187h-288zM282 636l-129 -398h256zM307.5 799.5q-16.5 6.5 -37.5 19.5q-16 10 -25.5 14.5t-20.5 4.5q-19 0 -30 -8.5t-26 -31.5l-36 19q38 67 93 67q15 0 29 -6t34 -18q3 -2 14.5 -8t21 -9.5t18.5 -3.5q15 0 27.5 10
t27.5 34l36 -19q-35 -71 -88 -71q-21 0 -37.5 6.5z" />
    <glyph glyph-name="Adieresis" unicode="&#xc4;" horiz-adv-x="565" 
d="M137 187l-60 -187h-61l229 685h75l228 -685h-63l-60 187h-288zM282 636l-129 -398h256zM215.5 856.5q11.5 -11.5 11.5 -28.5t-11.5 -28t-28.5 -11t-28.5 11t-11.5 28t11.5 28.5t28.5 11.5t28.5 -11.5zM405 856.5q11 -11.5 11 -28.5t-11 -28t-29 -11q-17 0 -28.5 11
t-11.5 28t11.5 28.5t28.5 11.5q18 0 29 -11.5z" />
    <glyph glyph-name="Aring" unicode="&#xc5;" horiz-adv-x="565" 
d="M137 187l-60 -187h-61l229 685h75l228 -685h-63l-60 187h-288zM282 636l-129 -398h256zM354 920.5q28 -26.5 28 -67.5t-28 -67.5t-71 -26.5t-71 26.5t-28 67.5t28 67.5t71 26.5t71 -26.5zM242.5 896q-14.5 -15 -14.5 -43t14.5 -43t40.5 -15t40.5 15t14.5 43t-14.5 43
t-40.5 15t-40.5 -15z" />
    <glyph glyph-name="AE" unicode="&#xc6;" horiz-adv-x="784" 
d="M737 0h-276l-46 184h-285l-70 -184h-60l267 685h423l-7 -50h-325l66 -256h258v-49h-245l72 -280h228v-50zM302 637l-153 -402h254z" />
    <glyph glyph-name="Ccedilla" unicode="&#xc7;" horiz-adv-x="550" 
d="M428.5 -88q22.5 -20 22.5 -52q0 -40 -30 -63.5t-75 -23.5q-48 0 -80 21l18 36q27 -15 60 -15q25 0 40 11.5t15 33.5q0 23 -21 33.5t-68 11.5l8 85q-74 6 -131 48.5t-89 120t-32 184.5q0 113 37 192.5t99.5 120t140.5 40.5q57 0 96.5 -15.5t79.5 -47.5l-32 -40
q-35 28 -67 40t-73 12q-97 0 -157.5 -74t-60.5 -228q0 -100 28 -168t76.5 -100.5t110.5 -32.5q48 0 81.5 14.5t69.5 43.5l32 -40q-70 -66 -168 -70v-54q47 -4 69.5 -24z" />
    <glyph glyph-name="Egrave" unicode="&#xc8;" horiz-adv-x="512" 
d="M171 635v-255h243v-50h-243v-280h295v-50h-355v685h348l-7 -50h-281zM372 758l-198 78l26 52l188 -96z" />
    <glyph glyph-name="Eacute" unicode="&#xc9;" horiz-adv-x="512" 
d="M171 635v-255h243v-50h-243v-280h295v-50h-355v685h348l-7 -50h-281zM201 758l-16 34l187 96l27 -52z" />
    <glyph glyph-name="Ecircumflex" unicode="&#xca;" horiz-adv-x="512" 
d="M171 635v-255h243v-50h-243v-280h295v-50h-355v685h348l-7 -50h-281zM167 762l-26 30l130 102h36l129 -102l-26 -30l-121 80z" />
    <glyph glyph-name="Edieresis" unicode="&#xcb;" horiz-adv-x="512" 
d="M171 635v-255h243v-50h-243v-280h295v-50h-355v685h348l-7 -50h-281zM222.5 856.5q11.5 -11.5 11.5 -28.5t-11.5 -28t-28.5 -11t-28.5 11t-11.5 28t11.5 28.5t28.5 11.5t28.5 -11.5zM412 856.5q11 -11.5 11 -28.5t-11 -28t-29 -11q-17 0 -28.5 11t-11.5 28t11.5 28.5
t28.5 11.5q18 0 29 -11.5z" />
    <glyph glyph-name="Igrave" unicode="&#xcc;" horiz-adv-x="282" 
d="M111 0v685h60v-685h-60zM224 758l-198 78l26 52l188 -96z" />
    <glyph glyph-name="Iacute" unicode="&#xcd;" horiz-adv-x="282" 
d="M111 0v685h60v-685h-60zM53 758l-16 34l187 96l27 -52z" />
    <glyph glyph-name="Icircumflex" unicode="&#xce;" horiz-adv-x="282" 
d="M111 0v685h60v-685h-60zM19 762l-26 30l130 102h36l129 -102l-26 -30l-121 80z" />
    <glyph glyph-name="Idieresis" unicode="&#xcf;" horiz-adv-x="282" 
d="M111 0v685h60v-685h-60zM74.5 856.5q11.5 -11.5 11.5 -28.5t-11.5 -28t-28.5 -11t-28.5 11t-11.5 28t11.5 28.5t28.5 11.5t28.5 -11.5zM264 856.5q11 -11.5 11 -28.5t-11 -28t-29 -11q-17 0 -28.5 11t-11.5 28t11.5 28.5t28.5 11.5q18 0 29 -11.5z" />
    <glyph glyph-name="Eth" unicode="&#xd0;" horiz-adv-x="635" 
d="M481 613q88 -72 88 -265t-89.5 -270.5t-218.5 -77.5h-147v330h-91v46h91v309h136q143 0 231 -72zM506 348q0 118 -35 181t-88.5 84.5t-124.5 21.5h-84v-259h175v-46h-175v-280h91q241 0 241 298z" />
    <glyph glyph-name="Ntilde" unicode="&#xd1;" horiz-adv-x="673" 
d="M483 0l-323 619q8 -125 8 -236v-383h-57v685h77l325 -619q-8 116 -8 203v416h57v-685h-79zM370.5 799.5q-16.5 6.5 -37.5 19.5q-16 10 -25.5 14.5t-20.5 4.5q-19 0 -30 -8.5t-26 -31.5l-36 19q38 67 93 67q15 0 29 -6t34 -18q3 -2 14.5 -8t21 -9.5t18.5 -3.5
q15 0 27.5 10t27.5 34l36 -19q-35 -71 -88 -71q-21 0 -37.5 6.5z" />
    <glyph glyph-name="Ograve" unicode="&#xd2;" horiz-adv-x="691" 
d="M492 655.5q63 -40.5 98 -120.5t35 -193q0 -111 -34.5 -190.5t-97.5 -121t-148 -41.5q-83 0 -146 41t-98 120t-35 191q0 111 35 191t98.5 122t145.5 42q84 0 147 -40.5zM187 568.5q-58 -76.5 -58 -227.5q0 -149 58.5 -225t157.5 -76q103 0 160 75.5t57 226.5
q0 152 -57.5 227.5t-159.5 75.5q-100 0 -158 -76.5zM422 758l-198 78l26 52l188 -96z" />
    <glyph glyph-name="Oacute" unicode="&#xd3;" horiz-adv-x="691" 
d="M492 655.5q63 -40.5 98 -120.5t35 -193q0 -111 -34.5 -190.5t-97.5 -121t-148 -41.5q-83 0 -146 41t-98 120t-35 191q0 111 35 191t98.5 122t145.5 42q84 0 147 -40.5zM187 568.5q-58 -76.5 -58 -227.5q0 -149 58.5 -225t157.5 -76q103 0 160 75.5t57 226.5
q0 152 -57.5 227.5t-159.5 75.5q-100 0 -158 -76.5zM252 758l-16 34l187 96l27 -52z" />
    <glyph glyph-name="Ocircumflex" unicode="&#xd4;" horiz-adv-x="691" 
d="M492 655.5q63 -40.5 98 -120.5t35 -193q0 -111 -34.5 -190.5t-97.5 -121t-148 -41.5q-83 0 -146 41t-98 120t-35 191q0 111 35 191t98.5 122t145.5 42q84 0 147 -40.5zM187 568.5q-58 -76.5 -58 -227.5q0 -149 58.5 -225t157.5 -76q103 0 160 75.5t57 226.5
q0 152 -57.5 227.5t-159.5 75.5q-100 0 -158 -76.5zM217 762l-26 30l130 102h36l129 -102l-26 -30l-121 80z" />
    <glyph glyph-name="Otilde" unicode="&#xd5;" horiz-adv-x="691" 
d="M492 655.5q63 -40.5 98 -120.5t35 -193q0 -111 -34.5 -190.5t-97.5 -121t-148 -41.5q-83 0 -146 41t-98 120t-35 191q0 111 35 191t98.5 122t145.5 42q84 0 147 -40.5zM187 568.5q-58 -76.5 -58 -227.5q0 -149 58.5 -225t157.5 -76q103 0 160 75.5t57 226.5
q0 152 -57.5 227.5t-159.5 75.5q-100 0 -158 -76.5zM363.5 799.5q-16.5 6.5 -37.5 19.5q-16 10 -25.5 14.5t-20.5 4.5q-19 0 -30 -8.5t-26 -31.5l-36 19q38 67 93 67q15 0 29 -6t34 -18q3 -2 14.5 -8t21 -9.5t18.5 -3.5q15 0 27.5 10t27.5 34l36 -19q-35 -71 -88 -71
q-21 0 -37.5 6.5z" />
    <glyph glyph-name="Odieresis" unicode="&#xd6;" horiz-adv-x="691" 
d="M492 655.5q63 -40.5 98 -120.5t35 -193q0 -111 -34.5 -190.5t-97.5 -121t-148 -41.5q-83 0 -146 41t-98 120t-35 191q0 111 35 191t98.5 122t145.5 42q84 0 147 -40.5zM187 568.5q-58 -76.5 -58 -227.5q0 -149 58.5 -225t157.5 -76q103 0 160 75.5t57 226.5
q0 152 -57.5 227.5t-159.5 75.5q-100 0 -158 -76.5zM272.5 856.5q11.5 -11.5 11.5 -28.5t-11.5 -28t-28.5 -11t-28.5 11t-11.5 28t11.5 28.5t28.5 11.5t28.5 -11.5zM462 856.5q11 -11.5 11 -28.5t-11 -28t-29 -11q-17 0 -28.5 11t-11.5 28t11.5 28.5t28.5 11.5
q18 0 29 -11.5z" />
    <glyph glyph-name="multiply" unicode="&#xd7;" horiz-adv-x="493" 
d="M282 307l127 -127l-38 -36l-125 127l-124 -127l-37 36l125 127l-125 127l37 37l124 -128l125 128l38 -37z" />
    <glyph glyph-name="Oslash" unicode="&#xd8;" horiz-adv-x="691" 
d="M584 548.5q41 -83.5 41 -206.5q0 -111 -34.5 -190.5t-97.5 -121t-148 -41.5q-37 0 -77 10l-33 -119l-53 15l38 123q-73 37 -113.5 119.5t-40.5 203.5q0 111 35 191t98.5 122t145.5 42q40 0 76 -9l35 123l53 -14l-40 -127q74 -37 115 -120.5zM158 166.5
q29 -68.5 83 -100.5l169 570q-30 9 -65 9q-100 0 -158 -76.5t-58 -227.5q0 -106 29 -174.5zM505 115.5q57 75.5 57 226.5q0 216 -114 279l-169 -571q30 -10 66 -10q103 0 160 75.5z" />
    <glyph glyph-name="Ugrave" unicode="&#xd9;" horiz-adv-x="652" 
d="M493 50.5q-58 -61.5 -167 -61.5q-111 0 -168 61t-57 164v471h60v-466q0 -86 40.5 -132t124.5 -46t124 46.5t40 131.5v466h61v-471q0 -102 -58 -163.5zM411 758l-198 78l26 52l188 -96z" />
    <glyph glyph-name="Uacute" unicode="&#xda;" horiz-adv-x="652" 
d="M493 50.5q-58 -61.5 -167 -61.5q-111 0 -168 61t-57 164v471h60v-466q0 -86 40.5 -132t124.5 -46t124 46.5t40 131.5v466h61v-471q0 -102 -58 -163.5zM240 758l-16 34l187 96l27 -52z" />
    <glyph glyph-name="Ucircumflex" unicode="&#xdb;" horiz-adv-x="652" 
d="M493 50.5q-58 -61.5 -167 -61.5q-111 0 -168 61t-57 164v471h60v-466q0 -86 40.5 -132t124.5 -46t124 46.5t40 131.5v466h61v-471q0 -102 -58 -163.5zM206 762l-26 30l130 102h36l129 -102l-26 -30l-121 80z" />
    <glyph glyph-name="Udieresis" unicode="&#xdc;" horiz-adv-x="652" 
d="M493 50.5q-58 -61.5 -167 -61.5q-111 0 -168 61t-57 164v471h60v-466q0 -86 40.5 -132t124.5 -46t124 46.5t40 131.5v466h61v-471q0 -102 -58 -163.5zM260.5 856.5q11.5 -11.5 11.5 -28.5t-11.5 -28t-28.5 -11t-28.5 11t-11.5 28t11.5 28.5t28.5 11.5t28.5 -11.5z
M450 856.5q11 -11.5 11 -28.5t-11 -28t-29 -11q-17 0 -28.5 11t-11.5 28t11.5 28.5t28.5 11.5q18 0 29 -11.5z" />
    <glyph glyph-name="Yacute" unicode="&#xdd;" horiz-adv-x="523" 
d="M292 0h-60v267l-219 418h67l184 -365l181 365h64l-217 -417v-268zM173 758l-16 34l187 96l27 -52z" />
    <glyph glyph-name="Thorn" unicode="&#xde;" horiz-adv-x="570" 
d="M460 512q65 -51 65 -156q0 -114 -68.5 -167t-187.5 -53h-98v-136h-60v685h60v-122h101q123 0 188 -51zM412 223.5q50 37.5 50 131.5q0 85 -48 121.5t-143 36.5h-100v-327h98q93 0 143 37.5z" />
    <glyph glyph-name="germandbls" unicode="&#xdf;" horiz-adv-x="582" 
d="M412.5 705q45.5 -38 45.5 -96q0 -41 -18 -66t-51 -51q-25 -21 -36 -35t-12 -33q1 -24 18 -41t53 -42q38 -26 62.5 -47.5t42 -56t17.5 -82.5q0 -74 -46 -120t-117 -46q-54 0 -96 23l18 41q32 -15 74 -15q49 0 78 31t29 87q0 38 -14 65.5t-34.5 45.5t-54.5 41
q-43 29 -64 53t-21 60q0 29 13.5 46.5t42.5 42.5q30 25 44.5 44.5t14.5 51.5q0 42 -30 66t-78 24q-59 0 -94 -39.5t-35 -118.5v-538h-58v540q0 97 51 150t137 53q73 0 118.5 -38z" />
    <glyph glyph-name="agrave" unicode="&#xe0;" horiz-adv-x="536" 
d="M441.5 57q10.5 -18 33.5 -27l-13 -41q-36 8 -55.5 28t-25.5 59q-57 -87 -163 -87q-75 0 -118.5 42.5t-43.5 113.5q0 82 57.5 126t159.5 44h100v50q0 63 -28 91.5t-93 28.5q-60 0 -142 -30l-15 44q88 35 165 35q171 0 171 -166v-252q0 -41 10.5 -59zM373 130v142h-91
q-80 0 -122 -31t-42 -93q0 -54 29 -83t81 -29q96 0 145 94zM354 645l-196 85l26 52l188 -103z" />
    <glyph glyph-name="aacute" unicode="&#xe1;" horiz-adv-x="536" 
d="M441.5 57q10.5 -18 33.5 -27l-13 -41q-36 8 -55.5 28t-25.5 59q-57 -87 -163 -87q-75 0 -118.5 42.5t-43.5 113.5q0 82 57.5 126t159.5 44h100v50q0 63 -28 91.5t-93 28.5q-60 0 -142 -30l-15 44q88 35 165 35q171 0 171 -166v-252q0 -41 10.5 -59zM373 130v142h-91
q-80 0 -122 -31t-42 -93q0 -54 29 -83t81 -29q96 0 145 94zM160 645l-19 34l188 103l26 -52z" />
    <glyph glyph-name="acircumflex" unicode="&#xe2;" horiz-adv-x="536" 
d="M441.5 57q10.5 -18 33.5 -27l-13 -41q-36 8 -55.5 28t-25.5 59q-57 -87 -163 -87q-75 0 -118.5 42.5t-43.5 113.5q0 82 57.5 126t159.5 44h100v50q0 63 -28 91.5t-93 28.5q-60 0 -142 -30l-15 44q88 35 165 35q171 0 171 -166v-252q0 -41 10.5 -59zM373 130v142h-91
q-80 0 -122 -31t-42 -93q0 -54 29 -83t81 -29q96 0 145 94zM241 779h36l130 -105l-26 -31l-122 85l-121 -85l-26 31z" />
    <glyph glyph-name="atilde" unicode="&#xe3;" horiz-adv-x="536" 
d="M441.5 57q10.5 -18 33.5 -27l-13 -41q-36 8 -55.5 28t-25.5 59q-57 -87 -163 -87q-75 0 -118.5 42.5t-43.5 113.5q0 82 57.5 126t159.5 44h100v50q0 63 -28 91.5t-93 28.5q-60 0 -142 -30l-15 44q88 35 165 35q171 0 171 -166v-252q0 -41 10.5 -59zM373 130v142h-91
q-80 0 -122 -31t-42 -93q0 -54 29 -83t81 -29q96 0 145 94zM283 673.5q-16 6.5 -39 19.5q-14 10 -24 14.5t-21 4.5q-19 0 -30 -8.5t-26 -31.5l-36 18q37 68 92 68q16 0 31 -6.5t33 -17.5q3 -2 14.5 -8t21 -9.5t18.5 -3.5q15 0 27.5 10t27.5 33l36 -18q-17 -36 -40 -54
t-48 -18q-21 1 -37 7.5z" />
    <glyph glyph-name="adieresis" unicode="&#xe4;" horiz-adv-x="536" 
d="M441.5 57q10.5 -18 33.5 -27l-13 -41q-36 8 -55.5 28t-25.5 59q-57 -87 -163 -87q-75 0 -118.5 42.5t-43.5 113.5q0 82 57.5 126t159.5 44h100v50q0 63 -28 91.5t-93 28.5q-60 0 -142 -30l-15 44q88 35 165 35q171 0 171 -166v-252q0 -41 10.5 -59zM373 130v142h-91
q-80 0 -122 -31t-42 -93q0 -54 29 -83t81 -29q96 0 145 94zM191.5 730.5q11.5 -11.5 11.5 -28.5t-11.5 -28t-28.5 -11t-28.5 11t-11.5 28t11.5 28.5t28.5 11.5t28.5 -11.5zM380.5 730.5q11.5 -11.5 11.5 -28.5t-11.5 -28t-28.5 -11t-28.5 11t-11.5 28t11.5 28.5t28.5 11.5
t28.5 -11.5z" />
    <glyph glyph-name="aring" unicode="&#xe5;" horiz-adv-x="536" 
d="M441.5 57q10.5 -18 33.5 -27l-13 -41q-36 8 -55.5 28t-25.5 59q-57 -87 -163 -87q-75 0 -118.5 42.5t-43.5 113.5q0 82 57.5 126t159.5 44h100v50q0 63 -28 91.5t-93 28.5q-60 0 -142 -30l-15 44q88 35 165 35q171 0 171 -166v-252q0 -41 10.5 -59zM373 130v142h-91
q-80 0 -122 -31t-42 -93q0 -54 29 -83t81 -29q96 0 145 94zM328.5 794.5q27.5 -26.5 27.5 -67.5t-27.5 -67.5t-70.5 -26.5q-44 0 -71.5 26.5t-27.5 67.5t27.5 67.5t71.5 26.5q43 0 70.5 -26.5zM216.5 769.5q-14.5 -15.5 -14.5 -42.5q0 -28 14.5 -43t41.5 -15q26 0 40.5 15
t14.5 43q0 27 -14.5 42.5t-40.5 15.5q-27 0 -41.5 -15.5z" />
    <glyph glyph-name="ae" unicode="&#xe6;" horiz-adv-x="849" 
d="M786 239h-350q6 -102 49.5 -151.5t113.5 -49.5q41 0 73 12.5t68 39.5l28 -37q-39 -32 -80.5 -48t-91.5 -16q-63 0 -110.5 27.5t-75.5 79.5q-40 -57 -85 -82t-105 -25q-76 0 -120 43t-44 113q0 81 58.5 125.5t160.5 44.5h100v50q0 63 -28.5 91.5t-92.5 28.5
q-60 0 -142 -30l-16 44q88 35 165 35q66 0 105 -25.5t55 -75.5q54 101 166 101q97 0 149 -67.5t52 -185.5q0 -22 -2 -42zM730 299q0 88 -36 137.5t-107 49.5q-65 0 -106 -50t-45 -152h294v15zM316.5 61q38.5 25 74.5 80q-16 49 -16 115v2v14h-92q-79 0 -121.5 -31.5
t-42.5 -92.5q0 -54 29 -83t81 -29q49 0 87.5 25z" />
    <glyph glyph-name="ccedilla" unicode="&#xe7;" horiz-adv-x="469" 
d="M368 -88q23 -20 23 -52q0 -40 -30.5 -63.5t-75.5 -23.5q-47 0 -80 21l19 36q25 -15 60 -15q24 0 39.5 11.5t15.5 33.5q0 23 -21 33.5t-68 11.5l8 86q-90 10 -142 80t-52 187q0 83 27.5 145.5t77.5 96.5t116 34q45 0 80 -12.5t68 -40.5l-29 -39q-26 22 -53.5 32t-62.5 10
q-74 0 -118 -57.5t-44 -167.5q0 -109 43.5 -164t117.5 -55q35 0 63.5 11t56.5 34l29 -40q-59 -52 -137 -56v-53q46 -4 69 -24z" />
    <glyph glyph-name="egrave" unicode="&#xe8;" horiz-adv-x="538" 
d="M475 239h-349q5 -102 48.5 -151.5t114.5 -49.5q41 0 72.5 12.5t68.5 39.5l27 -37q-39 -32 -80 -48t-91 -16q-104 0 -163 71t-59 197q0 83 25.5 145.5t73 97t110.5 34.5q100 0 152 -67.5t52 -185.5q0 -22 -2 -42zM420 299q0 88 -36.5 137.5t-108.5 49.5q-64 0 -104.5 -50
t-45.5 -152h295v15zM372 645l-196 85l26 52l188 -103z" />
    <glyph glyph-name="eacute" unicode="&#xe9;" horiz-adv-x="538" 
d="M475 239h-349q5 -102 48.5 -151.5t114.5 -49.5q41 0 72.5 12.5t68.5 39.5l27 -37q-39 -32 -80 -48t-91 -16q-104 0 -163 71t-59 197q0 83 25.5 145.5t73 97t110.5 34.5q100 0 152 -67.5t52 -185.5q0 -22 -2 -42zM420 299q0 88 -36.5 137.5t-108.5 49.5q-64 0 -104.5 -50
t-45.5 -152h295v15zM178 645l-19 34l188 103l26 -52z" />
    <glyph glyph-name="ecircumflex" unicode="&#xea;" horiz-adv-x="538" 
d="M475 239h-349q5 -102 48.5 -151.5t114.5 -49.5q41 0 72.5 12.5t68.5 39.5l27 -37q-39 -32 -80 -48t-91 -16q-104 0 -163 71t-59 197q0 83 25.5 145.5t73 97t110.5 34.5q100 0 152 -67.5t52 -185.5q0 -22 -2 -42zM420 299q0 88 -36.5 137.5t-108.5 49.5q-64 0 -104.5 -50
t-45.5 -152h295v15zM259 779h36l130 -105l-26 -31l-122 85l-121 -85l-26 31z" />
    <glyph glyph-name="edieresis" unicode="&#xeb;" horiz-adv-x="538" 
d="M475 239h-349q5 -102 48.5 -151.5t114.5 -49.5q41 0 72.5 12.5t68.5 39.5l27 -37q-39 -32 -80 -48t-91 -16q-104 0 -163 71t-59 197q0 83 25.5 145.5t73 97t110.5 34.5q100 0 152 -67.5t52 -185.5q0 -22 -2 -42zM420 299q0 88 -36.5 137.5t-108.5 49.5q-64 0 -104.5 -50
t-45.5 -152h295v15zM209.5 730.5q11.5 -11.5 11.5 -28.5t-11.5 -28t-28.5 -11t-28.5 11t-11.5 28t11.5 28.5t28.5 11.5t28.5 -11.5zM398.5 730.5q11.5 -11.5 11.5 -28.5t-11.5 -28t-28.5 -11t-28.5 11t-11.5 28t11.5 28.5t28.5 11.5t28.5 -11.5z" />
    <glyph glyph-name="igrave" unicode="&#xec;" horiz-adv-x="270" 
d="M106 0v523h58v-523h-58zM231 645l-196 85l26 52l188 -103z" />
    <glyph glyph-name="iacute" unicode="&#xed;" horiz-adv-x="270" 
d="M106 0v523h58v-523h-58zM37 645l-19 34l188 103l26 -52z" />
    <glyph glyph-name="icircumflex" unicode="&#xee;" horiz-adv-x="270" 
d="M106 0v523h58v-523h-58zM119 779h36l130 -105l-26 -31l-122 85l-121 -85l-26 31z" />
    <glyph glyph-name="idieresis" unicode="&#xef;" horiz-adv-x="270" 
d="M106 0v523h58v-523h-58zM68.5 730.5q11.5 -11.5 11.5 -28.5t-11.5 -28t-28.5 -11t-28.5 11t-11.5 28t11.5 28.5t28.5 11.5t28.5 -11.5zM257.5 730.5q11.5 -11.5 11.5 -28.5t-11.5 -28t-28.5 -11t-28.5 11t-11.5 28t11.5 28.5t28.5 11.5t28.5 -11.5z" />
    <glyph glyph-name="eth" unicode="&#xf0;" horiz-adv-x="561" 
d="M448 508.5q39 -91.5 39 -228.5q0 -139 -58 -215t-156 -76q-95 0 -152 65.5t-57 178.5q0 62 22.5 115.5t66.5 86.5t106 33q96 0 162 -80q-10 75 -42.5 134t-90.5 105l-76 -75l-42 19l80 82q-58 33 -122 45l13 46q77 -15 145 -55l69 73l35 -31l-66 -67q85 -64 124 -155.5z
M387 100q41 63 41 182q0 20 -2 48q-67 91 -159 91q-70 0 -106.5 -52.5t-36.5 -134.5q0 -94 39.5 -145.5t109.5 -51.5q73 0 114 63z" />
    <glyph glyph-name="ntilde" unicode="&#xf1;" horiz-adv-x="584" 
d="M445.5 492q37.5 -42 37.5 -118v-374h-58v366q0 63 -25 92t-74 29q-50 0 -88.5 -27.5t-73.5 -80.5v-379h-58v523h50l5 -89q71 100 176 100q71 0 108.5 -42zM323 673.5q-16 6.5 -39 19.5q-14 10 -24 14.5t-21 4.5q-19 0 -30 -8.5t-26 -31.5l-36 18q37 68 92 68
q16 0 31 -6.5t33 -17.5q3 -2 14.5 -8t21 -9.5t18.5 -3.5q15 0 27.5 10t27.5 33l36 -18q-17 -36 -40 -54t-48 -18q-21 1 -37 7.5z" />
    <glyph glyph-name="ograve" unicode="&#xf2;" horiz-adv-x="571" 
d="M448.5 462.5q58.5 -71.5 58.5 -199.5q0 -127 -59.5 -200.5t-162.5 -73.5q-104 0 -162.5 72.5t-58.5 199.5q0 83 27 145t77 95t118 33q104 0 162.5 -71.5zM168 428q-42 -57 -42 -167q0 -109 41.5 -166t117.5 -57t118.5 57t42.5 168q0 109 -41.5 165.5t-118.5 56.5
q-76 0 -118 -57zM382 645l-196 85l26 52l188 -103z" />
    <glyph glyph-name="oacute" unicode="&#xf3;" horiz-adv-x="571" 
d="M448.5 462.5q58.5 -71.5 58.5 -199.5q0 -127 -59.5 -200.5t-162.5 -73.5q-104 0 -162.5 72.5t-58.5 199.5q0 83 27 145t77 95t118 33q104 0 162.5 -71.5zM168 428q-42 -57 -42 -167q0 -109 41.5 -166t117.5 -57t118.5 57t42.5 168q0 109 -41.5 165.5t-118.5 56.5
q-76 0 -118 -57zM187 645l-19 34l188 103l26 -52z" />
    <glyph glyph-name="ocircumflex" unicode="&#xf4;" horiz-adv-x="571" 
d="M448.5 462.5q58.5 -71.5 58.5 -199.5q0 -127 -59.5 -200.5t-162.5 -73.5q-104 0 -162.5 72.5t-58.5 199.5q0 83 27 145t77 95t118 33q104 0 162.5 -71.5zM168 428q-42 -57 -42 -167q0 -109 41.5 -166t117.5 -57t118.5 57t42.5 168q0 109 -41.5 165.5t-118.5 56.5
q-76 0 -118 -57zM269 779h36l130 -105l-26 -31l-122 85l-121 -85l-26 31z" />
    <glyph glyph-name="otilde" unicode="&#xf5;" horiz-adv-x="571" 
d="M448.5 462.5q58.5 -71.5 58.5 -199.5q0 -127 -59.5 -200.5t-162.5 -73.5q-104 0 -162.5 72.5t-58.5 199.5q0 83 27 145t77 95t118 33q104 0 162.5 -71.5zM168 428q-42 -57 -42 -167q0 -109 41.5 -166t117.5 -57t118.5 57t42.5 168q0 109 -41.5 165.5t-118.5 56.5
q-76 0 -118 -57zM311 673.5q-16 6.5 -39 19.5q-14 10 -24 14.5t-21 4.5q-19 0 -30 -8.5t-26 -31.5l-36 18q37 68 92 68q16 0 31 -6.5t33 -17.5q3 -2 14.5 -8t21 -9.5t18.5 -3.5q15 0 27.5 10t27.5 33l36 -18q-17 -36 -40 -54t-48 -18q-21 1 -37 7.5z" />
    <glyph glyph-name="odieresis" unicode="&#xf6;" horiz-adv-x="571" 
d="M448.5 462.5q58.5 -71.5 58.5 -199.5q0 -127 -59.5 -200.5t-162.5 -73.5q-104 0 -162.5 72.5t-58.5 199.5q0 83 27 145t77 95t118 33q104 0 162.5 -71.5zM168 428q-42 -57 -42 -167q0 -109 41.5 -166t117.5 -57t118.5 57t42.5 168q0 109 -41.5 165.5t-118.5 56.5
q-76 0 -118 -57zM219.5 730.5q11.5 -11.5 11.5 -28.5t-11.5 -28t-28.5 -11t-28.5 11t-11.5 28t11.5 28.5t28.5 11.5t28.5 -11.5zM408.5 730.5q11.5 -11.5 11.5 -28.5t-11.5 -28t-28.5 -11t-28.5 11t-11.5 28t11.5 28.5t28.5 11.5t28.5 -11.5z" />
    <glyph glyph-name="divide" unicode="&#xf7;" horiz-adv-x="493" 
d="M280.5 146.5q13.5 -13.5 13.5 -33.5q0 -21 -13.5 -34.5t-34.5 -13.5q-20 0 -34 14t-14 34t14 33.5t34 13.5q21 0 34.5 -13.5zM280.5 583.5q13.5 -13.5 13.5 -33.5q0 -21 -13.5 -34.5t-34.5 -13.5q-20 0 -34 14t-14 34t14 33.5t34 13.5q21 0 34.5 -13.5zM424 357v-51h-355
v51h355z" />
    <glyph glyph-name="oslash" unicode="&#xf8;" horiz-adv-x="571" 
d="M478.5 414.5q28.5 -62.5 28.5 -151.5q0 -127 -59.5 -200.5t-162.5 -73.5q-31 0 -61 8l-41 -122l-49 14l43 127q-54 31 -83.5 94t-29.5 151q0 83 27 145t77 95t118 33q33 0 63 -8l39 122l49 -14l-41 -127q54 -30 82.5 -92.5zM199 61l139 417q-22 7 -52 7q-76 0 -118 -57
t-42 -167q0 -150 73 -200zM403.5 95q42.5 57 42.5 168q0 149 -73 199l-138 -417q22 -7 50 -7q76 0 118.5 57z" />
    <glyph glyph-name="ugrave" unicode="&#xf9;" horiz-adv-x="579" 
d="M423 0l-3 93q-62 -104 -171 -104q-71 0 -109.5 41.5t-38.5 118.5v374h58v-368q0 -61 25.5 -89.5t77.5 -28.5q91 0 153 107v379h58v-523h-50zM383 645l-196 85l26 52l188 -103z" />
    <glyph glyph-name="uacute" unicode="&#xfa;" horiz-adv-x="579" 
d="M423 0l-3 93q-62 -104 -171 -104q-71 0 -109.5 41.5t-38.5 118.5v374h58v-368q0 -61 25.5 -89.5t77.5 -28.5q91 0 153 107v379h58v-523h-50zM189 645l-19 34l188 103l26 -52z" />
    <glyph glyph-name="ucircumflex" unicode="&#xfb;" horiz-adv-x="579" 
d="M423 0l-3 93q-62 -104 -171 -104q-71 0 -109.5 41.5t-38.5 118.5v374h58v-368q0 -61 25.5 -89.5t77.5 -28.5q91 0 153 107v379h58v-523h-50zM270 779h36l130 -105l-26 -31l-122 85l-121 -85l-26 31z" />
    <glyph glyph-name="udieresis" unicode="&#xfc;" horiz-adv-x="579" 
d="M423 0l-3 93q-62 -104 -171 -104q-71 0 -109.5 41.5t-38.5 118.5v374h58v-368q0 -61 25.5 -89.5t77.5 -28.5q91 0 153 107v379h58v-523h-50zM220.5 730.5q11.5 -11.5 11.5 -28.5t-11.5 -28t-28.5 -11t-28.5 11t-11.5 28t11.5 28.5t28.5 11.5t28.5 -11.5zM409.5 730.5
q11.5 -11.5 11.5 -28.5t-11.5 -28t-28.5 -11t-28.5 11t-11.5 28t11.5 28.5t28.5 11.5t28.5 -11.5z" />
    <glyph glyph-name="yacute" unicode="&#xfd;" horiz-adv-x="468" 
d="M227 -102q-25 -39 -65 -64.5t-103 -37.5l-6 45q52 13 81.5 32t47 47.5t35.5 79.5h-20l-182 523h63l158 -480l155 480h61l-179 -525q-21 -61 -46 -100zM131 645l-19 34l188 103l26 -52z" />
    <glyph glyph-name="thorn" unicode="&#xfe;" horiz-adv-x="581" 
d="M464.5 463.5q47.5 -70.5 47.5 -199.5q0 -126 -51.5 -200.5t-147.5 -74.5q-47 0 -85 19.5t-64 52.5v-256l-58 -10v941l58 7v-292q29 39 69.5 61t88.5 22q95 0 142.5 -70.5zM412 95q38 57 38 169q0 222 -139 222q-47 0 -81.5 -24t-65.5 -66v-278q25 -38 60 -59t78 -21
q72 0 110 57z" />
    <glyph glyph-name="ydieresis" unicode="&#xff;" horiz-adv-x="468" 
d="M227 -102q-25 -39 -65 -64.5t-103 -37.5l-6 45q52 13 81.5 32t47 47.5t35.5 79.5h-20l-182 523h63l158 -480l155 480h61l-179 -525q-21 -61 -46 -100zM162.5 730.5q11.5 -11.5 11.5 -28.5t-11.5 -28t-28.5 -11t-28.5 11t-11.5 28t11.5 28.5t28.5 11.5t28.5 -11.5z
M351.5 730.5q11.5 -11.5 11.5 -28.5t-11.5 -28t-28.5 -11t-28.5 11t-11.5 28t11.5 28.5t28.5 11.5t28.5 -11.5z" />
    <glyph glyph-name="Amacron" unicode="&#x100;" horiz-adv-x="565" 
d="M137 187l-60 -187h-61l229 685h75l228 -685h-63l-60 187h-288zM282 636l-129 -398h256zM162 847h241v-47h-241v47z" />
    <glyph glyph-name="amacron" unicode="&#x101;" horiz-adv-x="536" 
d="M441.5 57q10.5 -18 33.5 -27l-13 -41q-36 8 -55.5 28t-25.5 59q-57 -87 -163 -87q-75 0 -118.5 42.5t-43.5 113.5q0 82 57.5 126t159.5 44h100v50q0 63 -28 91.5t-93 28.5q-60 0 -142 -30l-15 44q88 35 165 35q171 0 171 -166v-252q0 -41 10.5 -59zM373 130v142h-91
q-80 0 -122 -31t-42 -93q0 -54 29 -83t81 -29q96 0 145 94zM137 723h241v-47h-241v47z" />
    <glyph glyph-name="Abreve" unicode="&#x102;" horiz-adv-x="565" 
d="M137 187l-60 -187h-61l229 685h75l228 -685h-63l-60 187h-288zM282 636l-129 -398h256zM195 793.5q-36 28.5 -43 71.5l40 9q10 -29 33 -45.5t57 -16.5t57.5 16.5t33.5 45.5l40 -9q-7 -43 -43.5 -71.5t-87.5 -28.5t-87 28.5z" />
    <glyph glyph-name="abreve" unicode="&#x103;" horiz-adv-x="536" 
d="M441.5 57q10.5 -18 33.5 -27l-13 -41q-36 8 -55.5 28t-25.5 59q-57 -87 -163 -87q-75 0 -118.5 42.5t-43.5 113.5q0 82 57.5 126t159.5 44h100v50q0 63 -28 91.5t-93 28.5q-60 0 -142 -30l-15 44q88 35 165 35q171 0 171 -166v-252q0 -41 10.5 -59zM373 130v142h-91
q-80 0 -122 -31t-42 -93q0 -54 29 -83t81 -29q96 0 145 94zM169.5 683q-35.5 30 -42.5 80l40 9q20 -72 90 -72q71 0 91 72l40 -9q-7 -50 -43 -80t-88 -30t-87.5 30z" />
    <glyph glyph-name="Aogonek" unicode="&#x104;" horiz-adv-x="565" 
d="M436.5 -56q-27.5 -27 -27.5 -62q0 -24 16 -37.5t48 -13.5q23 0 56 6l-5 -48q-30 -6 -58 -6q-53 0 -82.5 25.5t-29.5 65.5q0 44 31.5 77t96.5 60l-57 176h-288l-60 -187h-61l229 685h75l228 -685h-17q-67 -29 -94.5 -56zM282 636l-129 -398h256z" />
    <glyph glyph-name="aogonek" unicode="&#x105;" horiz-adv-x="536" 
d="M368.5 -67.5q-27.5 -26.5 -27.5 -61.5q0 -25 16 -38.5t48 -13.5q25 0 56 7l-5 -49q-30 -6 -58 -6q-53 0 -82.5 26t-29.5 66q0 45 33.5 79t103.5 62q-35 20 -42 72q-57 -87 -163 -87q-75 0 -118.5 42.5t-43.5 113.5q0 82 57.5 126t159.5 44h100v50q0 63 -28 91.5t-93 28.5
q-60 0 -142 -30l-15 44q88 35 165 35q171 0 171 -166v-252q0 -41 10.5 -59t33.5 -27l-13 -40l1 -1q-67 -30 -94.5 -56.5zM373 130v142h-91q-80 0 -122 -31t-42 -93q0 -54 29 -83t81 -29q96 0 145 94z" />
    <glyph glyph-name="Cacute" unicode="&#x106;" horiz-adv-x="550" 
d="M439.5 680.5q39.5 -15.5 79.5 -47.5l-32 -40q-35 28 -67 40t-73 12q-97 0 -157.5 -74t-60.5 -228q0 -100 28 -168t76.5 -100.5t110.5 -32.5q48 0 81.5 14.5t69.5 43.5l32 -40q-73 -71 -185 -71q-80 0 -142.5 41t-98 120.5t-35.5 192.5t37 192.5t99.5 120t140.5 40.5
q57 0 96.5 -15.5zM257 758l-16 34l187 96l27 -52z" />
    <glyph glyph-name="cacute" unicode="&#x107;" horiz-adv-x="469" 
d="M365 521.5q35 -12.5 68 -40.5l-29 -39q-26 22 -53.5 32t-62.5 10q-74 0 -118 -57.5t-44 -167.5q0 -109 43.5 -164t117.5 -55q35 0 63.5 11t56.5 34l29 -40q-66 -56 -150 -56q-67 0 -117 32t-77.5 92.5t-27.5 144.5q0 83 27.5 145.5t77.5 96.5t116 34q45 0 80 -12.5z
M187 645l-19 34l188 103l26 -52z" />
    <glyph glyph-name="Ccircumflex" unicode="&#x108;" horiz-adv-x="550" 
d="M439.5 680.5q39.5 -15.5 79.5 -47.5l-32 -40q-35 28 -67 40t-73 12q-97 0 -157.5 -74t-60.5 -228q0 -100 28 -168t76.5 -100.5t110.5 -32.5q48 0 81.5 14.5t69.5 43.5l32 -40q-73 -71 -185 -71q-80 0 -142.5 41t-98 120.5t-35.5 192.5t37 192.5t99.5 120t140.5 40.5
q57 0 96.5 -15.5zM222 762l-26 30l130 102h36l129 -102l-26 -30l-121 80z" />
    <glyph glyph-name="ccircumflex" unicode="&#x109;" horiz-adv-x="469" 
d="M365 521.5q35 -12.5 68 -40.5l-29 -39q-26 22 -53.5 32t-62.5 10q-74 0 -118 -57.5t-44 -167.5q0 -109 43.5 -164t117.5 -55q35 0 63.5 11t56.5 34l29 -40q-66 -56 -150 -56q-67 0 -117 32t-77.5 92.5t-27.5 144.5q0 83 27.5 145.5t77.5 96.5t116 34q45 0 80 -12.5z
M268 779h36l130 -105l-26 -31l-122 85l-121 -85l-26 31z" />
    <glyph glyph-name="Cdotaccent" unicode="&#x10a;" horiz-adv-x="550" 
d="M439.5 680.5q39.5 -15.5 79.5 -47.5l-32 -40q-35 28 -67 40t-73 12q-97 0 -157.5 -74t-60.5 -228q0 -100 28 -168t76.5 -100.5t110.5 -32.5q48 0 81.5 14.5t69.5 43.5l32 -40q-73 -71 -185 -71q-80 0 -142.5 41t-98 120.5t-35.5 192.5t37 192.5t99.5 120t140.5 40.5
q57 0 96.5 -15.5zM375 867q12 -12 12 -30t-12 -29.5t-32 -11.5q-19 0 -31 11.5t-12 29.5t12 30t31 12q20 0 32 -12z" />
    <glyph glyph-name="cdotaccent" unicode="&#x10b;" horiz-adv-x="469" 
d="M365 521.5q35 -12.5 68 -40.5l-29 -39q-26 22 -53.5 32t-62.5 10q-74 0 -118 -57.5t-44 -167.5q0 -109 43.5 -164t117.5 -55q35 0 63.5 11t56.5 34l29 -40q-66 -56 -150 -56q-67 0 -117 32t-77.5 92.5t-27.5 144.5q0 83 27.5 145.5t77.5 96.5t116 34q45 0 80 -12.5z
M316 741q12 -12 12 -30t-12 -30t-32 -12q-19 0 -31 12t-12 30t12 30t31 12q20 0 32 -12z" />
    <glyph glyph-name="Ccaron" unicode="&#x10c;" horiz-adv-x="550" 
d="M439.5 680.5q39.5 -15.5 79.5 -47.5l-32 -40q-35 28 -67 40t-73 12q-97 0 -157.5 -74t-60.5 -228q0 -100 28 -168t76.5 -100.5t110.5 -32.5q48 0 81.5 14.5t69.5 43.5l32 -40q-73 -71 -185 -71q-80 0 -142.5 41t-98 120.5t-35.5 192.5t37 192.5t99.5 120t140.5 40.5
q57 0 96.5 -15.5zM365 756h-36l-130 101l26 31l122 -80l121 80l26 -31z" />
    <glyph glyph-name="ccaron" unicode="&#x10d;" horiz-adv-x="469" 
d="M365 521.5q35 -12.5 68 -40.5l-29 -39q-26 22 -53.5 32t-62.5 10q-74 0 -118 -57.5t-44 -167.5q0 -109 43.5 -164t117.5 -55q35 0 63.5 11t56.5 34l29 -40q-66 -56 -150 -56q-67 0 -117 32t-77.5 92.5t-27.5 144.5q0 83 27.5 145.5t77.5 96.5t116 34q45 0 80 -12.5z
M306 634h-36l-130 106l26 30l122 -84l121 84l26 -30z" />
    <glyph glyph-name="Dcaron" unicode="&#x10e;" horiz-adv-x="632" 
d="M477.5 613q88.5 -72 88.5 -265t-89.5 -270.5t-218.5 -77.5h-147v685h136q142 0 230.5 -72zM171 50h91q241 0 241 298q0 118 -35 181t-88.5 84.5t-124.5 21.5h-84v-585zM320 756h-36l-130 101l26 31l122 -80l121 80l26 -31z" />
    <glyph glyph-name="dcaron" unicode="&#x10f;" horiz-adv-x="586" 
d="M479 0h-50l-7 80q-24 -42 -63.5 -66.5t-93.5 -24.5q-91 0 -143.5 72.5t-52.5 197.5q0 81 24.5 143t71 97t109.5 35q89 0 147 -71v280l58 -7v-736zM358.5 61.5q34.5 24.5 62.5 72.5v273q-56 79 -137 79q-70 0 -111.5 -58.5t-41.5 -165.5q0 -108 37.5 -166t105.5 -59
q50 0 84.5 24.5zM577 572l-36 5l17 165l56 -6z" />
    <glyph glyph-name="Dcroat" unicode="&#x110;" horiz-adv-x="635" 
d="M481 613q88 -72 88 -265t-89.5 -270.5t-218.5 -77.5h-147v330h-91v46h91v309h136q143 0 231 -72zM506 348q0 118 -35 181t-88.5 84.5t-124.5 21.5h-84v-259h175v-46h-175v-280h91q241 0 241 298z" />
    <glyph glyph-name="dcroat" unicode="&#x111;" horiz-adv-x="592" 
d="M556 616h-77v-616h-50l-7 80q-24 -42 -63.5 -66.5t-93.5 -24.5q-91 0 -143.5 72.5t-52.5 197.5q0 81 24.5 143t71 97t109.5 35q89 0 147 -71v153h-160l-7 47h167v80l58 -7v-73h77v-47zM358.5 61.5q34.5 24.5 62.5 72.5v273q-56 79 -137 79q-70 0 -111.5 -58.5
t-41.5 -165.5q0 -108 37.5 -166t105.5 -59q50 0 84.5 24.5z" />
    <glyph glyph-name="Emacron" unicode="&#x112;" horiz-adv-x="512" 
d="M171 635v-255h243v-50h-243v-280h295v-50h-355v685h348l-7 -50h-281zM168 847h241v-47h-241v47z" />
    <glyph glyph-name="emacron" unicode="&#x113;" horiz-adv-x="538" 
d="M475 239h-349q5 -102 48.5 -151.5t114.5 -49.5q41 0 72.5 12.5t68.5 39.5l27 -37q-39 -32 -80 -48t-91 -16q-104 0 -163 71t-59 197q0 83 25.5 145.5t73 97t110.5 34.5q100 0 152 -67.5t52 -185.5q0 -22 -2 -42zM420 299q0 88 -36.5 137.5t-108.5 49.5q-64 0 -104.5 -50
t-45.5 -152h295v15zM155 723h241v-47h-241v47z" />
    <glyph glyph-name="Ebreve" unicode="&#x114;" horiz-adv-x="512" 
d="M171 635v-255h243v-50h-243v-280h295v-50h-355v685h348l-7 -50h-281zM201 793.5q-36 28.5 -43 71.5l40 9q10 -29 33 -45.5t57 -16.5t57.5 16.5t33.5 45.5l40 -9q-7 -43 -43.5 -71.5t-87.5 -28.5t-87 28.5z" />
    <glyph glyph-name="ebreve" unicode="&#x115;" horiz-adv-x="538" 
d="M475 239h-349q5 -102 48.5 -151.5t114.5 -49.5q41 0 72.5 12.5t68.5 39.5l27 -37q-39 -32 -80 -48t-91 -16q-104 0 -163 71t-59 197q0 83 25.5 145.5t73 97t110.5 34.5q100 0 152 -67.5t52 -185.5q0 -22 -2 -42zM420 299q0 88 -36.5 137.5t-108.5 49.5q-64 0 -104.5 -50
t-45.5 -152h295v15zM187.5 683q-35.5 30 -42.5 80l40 9q20 -72 90 -72q71 0 91 72l40 -9q-7 -50 -43 -80t-88 -30t-87.5 30z" />
    <glyph glyph-name="Edotaccent" unicode="&#x116;" horiz-adv-x="512" 
d="M171 635v-255h243v-50h-243v-280h295v-50h-355v685h348l-7 -50h-281zM320 867q12 -12 12 -30t-12 -29.5t-32 -11.5q-19 0 -31 11.5t-12 29.5t12 30t31 12q20 0 32 -12z" />
    <glyph glyph-name="edotaccent" unicode="&#x117;" horiz-adv-x="538" 
d="M475 239h-349q5 -102 48.5 -151.5t114.5 -49.5q41 0 72.5 12.5t68.5 39.5l27 -37q-39 -32 -80 -48t-91 -16q-104 0 -163 71t-59 197q0 83 25.5 145.5t73 97t110.5 34.5q100 0 152 -67.5t52 -185.5q0 -22 -2 -42zM420 299q0 88 -36.5 137.5t-108.5 49.5q-64 0 -104.5 -50
t-45.5 -152h295v15zM307 741q12 -12 12 -30t-12 -30t-32 -12q-19 0 -31 12t-12 30t12 30t31 12q20 0 32 -12z" />
    <glyph glyph-name="Eogonek" unicode="&#x118;" horiz-adv-x="512" 
d="M466 0h-32q-67 -30 -94.5 -56.5t-27.5 -61.5q0 -25 16 -38.5t48 -13.5q26 0 57 7l-6 -49q-30 -6 -58 -6q-53 0 -82 25.5t-29 66.5q0 39 25.5 70t77.5 56h-250v685h348l-7 -50h-281v-255h243v-50h-243v-280h295v-50z" />
    <glyph glyph-name="eogonek" unicode="&#x119;" horiz-adv-x="538" 
d="M475 239h-349q5 -102 48.5 -151.5t114.5 -49.5q41 0 72.5 12.5t68.5 39.5l27 -37q-44 -36 -88 -51q-63 -29 -89 -54.5t-26 -59.5q0 -25 16 -38.5t48 -13.5q25 0 56 7l-5 -49q-30 -6 -58 -6q-53 0 -82.5 26t-29.5 66q0 66 82 109q-101 2 -159 73t-58 195q0 83 25.5 145.5
t73 97t110.5 34.5q100 0 152 -67.5t52 -185.5q0 -22 -2 -42zM420 299q0 88 -36.5 137.5t-108.5 49.5q-64 0 -104.5 -50t-45.5 -152h295v15z" />
    <glyph glyph-name="Ecaron" unicode="&#x11a;" horiz-adv-x="512" 
d="M171 635v-255h243v-50h-243v-280h295v-50h-355v685h348l-7 -50h-281zM309 756h-36l-130 101l26 31l122 -80l121 80l26 -31z" />
    <glyph glyph-name="ecaron" unicode="&#x11b;" horiz-adv-x="538" 
d="M475 239h-349q5 -102 48.5 -151.5t114.5 -49.5q41 0 72.5 12.5t68.5 39.5l27 -37q-39 -32 -80 -48t-91 -16q-104 0 -163 71t-59 197q0 83 25.5 145.5t73 97t110.5 34.5q100 0 152 -67.5t52 -185.5q0 -22 -2 -42zM420 299q0 88 -36.5 137.5t-108.5 49.5q-64 0 -104.5 -50
t-45.5 -152h295v15zM297 634h-36l-130 106l26 30l122 -84l121 84l26 -30z" />
    <glyph glyph-name="Gcircumflex" unicode="&#x11c;" horiz-adv-x="618" 
d="M452.5 679.5q43.5 -16.5 87.5 -51.5l-36 -37q-37 28 -72 41t-81 13q-58 0 -108.5 -31t-82 -98.5t-31.5 -170.5q0 -153 58 -229t162 -76q80 0 144 36v243h-134l-7 50h200v-324q-96 -56 -206 -56q-85 0 -148 40t-97.5 120t-34.5 196q0 112 40 191.5t105 119.5t139 40
q59 0 102.5 -16.5zM230 762l-26 30l130 102h36l129 -102l-26 -30l-121 80z" />
    <glyph glyph-name="gcircumflex" unicode="&#x11d;" horiz-adv-x="503" 
d="M350 497q89 -42 89 -142q0 -77 -51 -124.5t-138 -47.5q-39 0 -68 10q-19 -11 -29.5 -26.5t-10.5 -33.5q0 -54 83 -54h85q77 0 122.5 -37.5t45.5 -96.5q0 -72 -57 -111t-170 -39q-117 0 -167.5 35.5t-50.5 114.5h54q1 -38 16 -60t50 -32t98 -10q88 0 128 25.5t40 73.5
q0 42 -31 64.5t-87 22.5h-85q-62 0 -95.5 26t-33.5 66q0 26 15 49t42 40q-45 23 -66.5 59t-21.5 88q0 79 53 128t139 49q95 -1 138.5 7t90.5 27l18 -56q-48 -13 -145 -15zM149.5 453q-33.5 -36 -33.5 -96q0 -62 35.5 -97t96.5 -35q64 0 98 34.5t34 96.5q0 63 -33.5 98
t-98.5 35t-98.5 -36zM235 779h36l130 -105l-26 -31l-122 85l-121 -85l-26 31z" />
    <glyph glyph-name="Gbreve" unicode="&#x11e;" horiz-adv-x="618" 
d="M452.5 679.5q43.5 -16.5 87.5 -51.5l-36 -37q-37 28 -72 41t-81 13q-58 0 -108.5 -31t-82 -98.5t-31.5 -170.5q0 -153 58 -229t162 -76q80 0 144 36v243h-134l-7 50h200v-324q-96 -56 -206 -56q-85 0 -148 40t-97.5 120t-34.5 196q0 112 40 191.5t105 119.5t139 40
q59 0 102.5 -16.5zM264 793.5q-36 28.5 -43 71.5l40 9q10 -29 33 -45.5t57 -16.5t57.5 16.5t33.5 45.5l40 -9q-7 -43 -43.5 -71.5t-87.5 -28.5t-87 28.5z" />
    <glyph glyph-name="gbreve" unicode="&#x11f;" horiz-adv-x="503" 
d="M350 497q89 -42 89 -142q0 -77 -51 -124.5t-138 -47.5q-39 0 -68 10q-19 -11 -29.5 -26.5t-10.5 -33.5q0 -54 83 -54h85q77 0 122.5 -37.5t45.5 -96.5q0 -72 -57 -111t-170 -39q-117 0 -167.5 35.5t-50.5 114.5h54q1 -38 16 -60t50 -32t98 -10q88 0 128 25.5t40 73.5
q0 42 -31 64.5t-87 22.5h-85q-62 0 -95.5 26t-33.5 66q0 26 15 49t42 40q-45 23 -66.5 59t-21.5 88q0 79 53 128t139 49q95 -1 138.5 7t90.5 27l18 -56q-48 -13 -145 -15zM149.5 453q-33.5 -36 -33.5 -96q0 -62 35.5 -97t96.5 -35q64 0 98 34.5t34 96.5q0 63 -33.5 98
t-98.5 35t-98.5 -36zM163.5 683q-35.5 30 -42.5 80l40 9q20 -72 90 -72q71 0 91 72l40 -9q-7 -50 -43 -80t-88 -30t-87.5 30z" />
    <glyph glyph-name="Gdotaccent" unicode="&#x120;" horiz-adv-x="618" 
d="M452.5 679.5q43.5 -16.5 87.5 -51.5l-36 -37q-37 28 -72 41t-81 13q-58 0 -108.5 -31t-82 -98.5t-31.5 -170.5q0 -153 58 -229t162 -76q80 0 144 36v243h-134l-7 50h200v-324q-96 -56 -206 -56q-85 0 -148 40t-97.5 120t-34.5 196q0 112 40 191.5t105 119.5t139 40
q59 0 102.5 -16.5zM383 867q12 -12 12 -30t-12 -29.5t-32 -11.5q-19 0 -31 11.5t-12 29.5t12 30t31 12q20 0 32 -12z" />
    <glyph glyph-name="gdotaccent" unicode="&#x121;" horiz-adv-x="503" 
d="M350 497q89 -42 89 -142q0 -77 -51 -124.5t-138 -47.5q-39 0 -68 10q-19 -11 -29.5 -26.5t-10.5 -33.5q0 -54 83 -54h85q77 0 122.5 -37.5t45.5 -96.5q0 -72 -57 -111t-170 -39q-117 0 -167.5 35.5t-50.5 114.5h54q1 -38 16 -60t50 -32t98 -10q88 0 128 25.5t40 73.5
q0 42 -31 64.5t-87 22.5h-85q-62 0 -95.5 26t-33.5 66q0 26 15 49t42 40q-45 23 -66.5 59t-21.5 88q0 79 53 128t139 49q95 -1 138.5 7t90.5 27l18 -56q-48 -13 -145 -15zM149.5 453q-33.5 -36 -33.5 -96q0 -62 35.5 -97t96.5 -35q64 0 98 34.5t34 96.5q0 63 -33.5 98
t-98.5 35t-98.5 -36zM283 741q12 -12 12 -30t-12 -30t-32 -12q-19 0 -31 12t-12 30t12 30t31 12q20 0 32 -12z" />
    <glyph glyph-name="Gcommaaccent" unicode="&#x122;" horiz-adv-x="618" 
d="M452.5 679.5q43.5 -16.5 87.5 -51.5l-36 -37q-37 28 -72 41t-81 13q-58 0 -108.5 -31t-82 -98.5t-31.5 -170.5q0 -153 58 -229t162 -76q80 0 144 36v243h-134l-7 50h200v-324q-96 -56 -206 -56q-85 0 -148 40t-97.5 120t-34.5 196q0 112 40 191.5t105 119.5t139 40
q59 0 102.5 -16.5zM370.5 -97q12.5 -12 12.5 -30q0 -12 -4.5 -24.5t-17.5 -41.5l-40 -86h-36l32 114q-22 13 -22 38q0 18 12.5 30t31.5 12t31.5 -12z" />
    <glyph glyph-name="gcommaaccent" unicode="&#x123;" horiz-adv-x="503" 
d="M350 497q89 -42 89 -142q0 -77 -51 -124.5t-138 -47.5q-39 0 -68 10q-19 -11 -29.5 -26.5t-10.5 -33.5q0 -54 83 -54h85q77 0 122.5 -37.5t45.5 -96.5q0 -72 -57 -111t-170 -39q-117 0 -167.5 35.5t-50.5 114.5h54q1 -38 16 -60t50 -32t98 -10q88 0 128 25.5t40 73.5
q0 42 -31 64.5t-87 22.5h-85q-62 0 -95.5 26t-33.5 66q0 26 15 49t42 40q-45 23 -66.5 59t-21.5 88q0 79 53 128t139 49q95 -1 138.5 7t90.5 27l18 -56q-48 -13 -145 -15zM149.5 453q-33.5 -36 -33.5 -96q0 -62 35.5 -97t96.5 -35q64 0 98 34.5t34 96.5q0 63 -33.5 98
t-98.5 35t-98.5 -36zM219.5 620q-12.5 12 -12.5 30q0 12 4.5 24.5t17.5 41.5l40 86h36l-32 -114q22 -13 22 -38q0 -18 -12.5 -30t-31.5 -12t-31.5 12z" />
    <glyph glyph-name="Hcircumflex" unicode="&#x124;" horiz-adv-x="670" 
d="M171 335v-335h-60v685h60v-299h328v299h60v-685h-60v335h-328zM212 762l-26 30l130 102h36l129 -102l-26 -30l-121 80z" />
    <glyph glyph-name="hcircumflex" unicode="&#x125;" horiz-adv-x="584" 
d="M445 491.5q38 -42.5 38 -117.5v-374h-58v366q0 121 -99 121q-50 0 -88.5 -27.5t-73.5 -80.5v-379h-58v736l58 7v-307q70 98 173 98q70 0 108 -42.5zM172 813l-26 30l130 102h36l129 -102l-26 -30l-121 80z" />
    <glyph glyph-name="Hbar" unicode="&#x126;" horiz-adv-x="668" 
d="M563 513v-513h-59v335h-329v-335h-60v513h-69v45h69v127h60v-127h329v127h59v-127h59v-45h-59zM175 513v-127h328v127h-328z" />
    <glyph glyph-name="hbar" unicode="&#x127;" horiz-adv-x="589" 
d="M450 491.5q38 -42.5 38 -117.5v-374h-58v366q0 121 -99 121q-49 0 -88 -27.5t-74 -79.5v-380h-58v616h-75v47h75v73l58 7v-80h171l-8 -47h-163v-180q71 98 173 98q70 0 108 -42.5z" />
    <glyph glyph-name="Itilde" unicode="&#x128;" horiz-adv-x="282" 
d="M111 0v685h60v-685h-60zM166.5 799.5q-16.5 6.5 -37.5 19.5q-16 10 -25.5 14.5t-20.5 4.5q-19 0 -30 -8.5t-26 -31.5l-36 19q38 67 93 67q15 0 29 -6t34 -18q3 -2 14.5 -8t21 -9.5t18.5 -3.5q15 0 27.5 10t27.5 34l36 -19q-35 -71 -88 -71q-21 0 -37.5 6.5z" />
    <glyph glyph-name="itilde" unicode="&#x129;" horiz-adv-x="270" 
d="M106 0v523h58v-523h-58zM161 673.5q-16 6.5 -39 19.5q-14 10 -24 14.5t-21 4.5q-19 0 -30 -8.5t-26 -31.5l-36 18q37 68 92 68q16 0 31 -6.5t33 -17.5q3 -2 14.5 -8t21 -9.5t18.5 -3.5q15 0 27.5 10t27.5 33l36 -18q-17 -36 -40 -54t-48 -18q-21 1 -37 7.5z" />
    <glyph glyph-name="Imacron" unicode="&#x12a;" horiz-adv-x="282" 
d="M111 0v685h60v-685h-60zM21 847h241v-47h-241v47z" />
    <glyph glyph-name="imacron" unicode="&#x12b;" horiz-adv-x="270" 
d="M106 0v523h58v-523h-58zM15 723h241v-47h-241v47z" />
    <glyph glyph-name="Ibreve" unicode="&#x12c;" horiz-adv-x="282" 
d="M111 0v685h60v-685h-60zM54 793.5q-36 28.5 -43 71.5l40 9q10 -29 33 -45.5t57 -16.5t57.5 16.5t33.5 45.5l40 -9q-7 -43 -43.5 -71.5t-87.5 -28.5t-87 28.5z" />
    <glyph glyph-name="ibreve" unicode="&#x12d;" horiz-adv-x="270" 
d="M106 0v523h58v-523h-58zM47.5 683q-35.5 30 -42.5 80l40 9q20 -72 90 -72q71 0 91 72l40 -9q-7 -50 -43 -80t-88 -30t-87.5 30z" />
    <glyph glyph-name="Iogonek" unicode="&#x12e;" horiz-adv-x="282" 
d="M66 -156.5q16 -13.5 48 -13.5q25 0 56 7l-5 -49q-30 -6 -58 -6q-53 0 -82.5 26t-29.5 66q0 41 28.5 73t87.5 59v679h60l1 -685q-67 -30 -94.5 -56.5t-27.5 -61.5q0 -25 16 -38.5z" />
    <glyph glyph-name="iogonek" unicode="&#x12f;" horiz-adv-x="270" 
d="M167 741q12 -12 12 -30t-12 -29.5t-32 -11.5q-19 0 -31 11.5t-12 29.5t12 30t31 12q20 0 32 -12zM69.5 -56.5q-27.5 -26.5 -27.5 -61.5q0 -25 16 -38.5t48 -13.5q25 0 56 7l-5 -49q-30 -6 -58 -6q-53 0 -82.5 26t-29.5 66q0 42 29.5 74t89.5 59v516h58v-523
q-67 -30 -94.5 -56.5z" />
    <glyph glyph-name="Idotaccent" unicode="&#x130;" horiz-adv-x="282" 
d="M111 0v685h60v-685h-60zM172 867q12 -12 12 -30t-12 -29.5t-32 -11.5q-19 0 -31 11.5t-12 29.5t12 30t31 12q20 0 32 -12z" />
    <glyph glyph-name="dotlessi" unicode="&#x131;" horiz-adv-x="270" 
d="M106 0v523h58v-523h-58z" />
    <glyph glyph-name="IJ" unicode="&#x132;" horiz-adv-x="573" 
d="M111 0v685h60v-685h-60zM451.5 -7.5q-15.5 -38.5 -48.5 -63.5t-92 -48l-16 44q46 20 70 41.5t33 51t9 77.5v590h60v-593q0 -61 -15.5 -99.5z" />
    <glyph glyph-name="ij" unicode="&#x133;" horiz-adv-x="540" 
d="M167 741q12 -12 12 -30t-12 -29.5t-32 -11.5q-19 0 -31 11.5t-12 29.5t12 30t31 12q20 0 32 -12zM164 523v-523h-58v523h58zM434 19q0 -68 -15 -108.5t-44 -64.5t-81 -49l-17 42q38 19 58.5 37.5t30.5 51t10 89.5v506h58v-504z" />
    <glyph glyph-name="Jcircumflex" unicode="&#x134;" horiz-adv-x="291" 
d="M169.5 -7.5q-15.5 -38.5 -48.5 -63.5t-92 -48l-16 44q46 20 70 41.5t33 51t9 77.5v590h60v-593q0 -61 -15.5 -99.5zM33 762l-26 30l130 102h36l129 -102l-26 -30l-121 80z" />
    <glyph glyph-name="jcircumflex" unicode="&#x135;" horiz-adv-x="270" 
d="M149 -89.5q-15 -40.5 -44 -65t-82 -48.5l-17 42q38 19 58.5 37.5t31 51t10.5 89.5v506h58v-504q0 -68 -15 -108.5zM118 779h36l130 -105l-26 -31l-122 85l-121 -85l-26 31z" />
    <glyph glyph-name="Kcommaaccent" unicode="&#x136;" horiz-adv-x="547" 
d="M111 0v685h60v-685h-60zM547 0h-73l-299 367l286 318h69l-284 -315zM337.5 -97q12.5 -12 12.5 -30q0 -12 -4.5 -24.5t-17.5 -41.5l-40 -86h-36l32 114q-22 13 -22 38q0 18 12.5 30t31.5 12t31.5 -12z" />
    <glyph glyph-name="kcommaaccent" unicode="&#x137;" horiz-adv-x="488" 
d="M106 0v736l58 7v-743h-58zM480 0h-70l-240 286l220 237h67l-220 -234zM294.5 -97q12.5 -12 12.5 -30q0 -12 -4.5 -24.5t-17.5 -41.5l-40 -86h-36l32 114q-22 13 -22 38q0 18 12.5 30t31.5 12t31.5 -12z" />
    <glyph glyph-name="kgreenlandic" unicode="&#x138;" horiz-adv-x="487" 
d="M106 0v523h58v-523h-58zM479 0h-70l-240 276l219 247h68l-220 -244z" />
    <glyph glyph-name="Lacute" unicode="&#x139;" horiz-adv-x="474" 
d="M457 54l-8 -54h-338v685h60v-631h286zM54 758l-16 34l187 96l27 -52z" />
    <glyph glyph-name="lacute" unicode="&#x13a;" horiz-adv-x="284" 
d="M169 51.5q10 -12.5 33 -12.5q20 0 35 7l16 -43q-31 -14 -62 -14q-43 0 -66.5 25t-23.5 76v646l58 7v-653q0 -26 10 -38.5zM42 808l-16 34l187 96l27 -52z" />
    <glyph glyph-name="Lcommaaccent" unicode="&#x13b;" horiz-adv-x="474" 
d="M457 54l-8 -54h-338v685h60v-631h286zM313.5 -97q12.5 -12 12.5 -30q0 -12 -4.5 -24.5t-17.5 -41.5l-40 -86h-36l32 114q-22 13 -22 38q0 18 12.5 30t31.5 12t31.5 -12z" />
    <glyph glyph-name="lcommaaccent" unicode="&#x13c;" horiz-adv-x="284" 
d="M169 51.5q10 -12.5 33 -12.5q20 0 35 7l16 -43q-31 -14 -62 -14q-43 0 -66.5 25t-23.5 76v646l58 7v-653q0 -26 10 -38.5zM169.5 -97q12.5 -12 12.5 -30q0 -12 -4.5 -24.5t-17.5 -41.5l-40 -86h-36l32 114q-22 13 -22 38q0 18 12.5 30t31.5 12t31.5 -12z" />
    <glyph glyph-name="Lcaron" unicode="&#x13d;" horiz-adv-x="474" 
d="M457 54l-8 -54h-338v685h60v-631h286zM277 521l-36 5l17 165l56 -6z" />
    <glyph glyph-name="lcaron" unicode="&#x13e;" horiz-adv-x="284" 
d="M169 51.5q10 -12.5 33 -12.5q20 0 35 7l16 -43q-31 -14 -62 -14q-43 0 -66.5 25t-23.5 76v646l58 7v-653q0 -26 10 -38.5zM259 572l-36 5l17 165l56 -6z" />
    <glyph glyph-name="Ldot" unicode="&#x13f;" horiz-adv-x="474" 
d="M457 54l-8 -54h-338v685h60v-631h286zM401 399q12 -12 12 -30t-12 -30t-32 -12q-19 0 -31 12t-12 30t12 30t31 12q20 0 32 -12z" />
    <glyph glyph-name="ldot" unicode="&#x140;" horiz-adv-x="304" 
d="M169 51.5q10 -12.5 33 -12.5q20 0 35 7l16 -43q-31 -14 -62 -14q-43 0 -66.5 25t-23.5 76v646l58 7v-653q0 -26 10 -38.5zM308 406q12 -12 12 -30t-12 -30t-32 -12q-19 0 -31 12t-12 30t12 30t31 12q20 0 32 -12z" />
    <glyph glyph-name="Lslash" unicode="&#x141;" horiz-adv-x="485" 
d="M459 0h-338v281l-64 -40l-24 39l88 55v350h60v-312l181 112l25 -39l-205 -127v-265h285z" />
    <glyph glyph-name="lslash" unicode="&#x142;" horiz-adv-x="292" 
d="M244 46l15 -43q-28 -14 -62 -14q-43 0 -66.5 25t-23.5 75v241l-58 -35l-21 42l79 49v351l58 7v-323l89 55l21 -43l-110 -67v-276q0 -26 10 -38.5t33 -12.5q21 0 36 7z" />
    <glyph glyph-name="Nacute" unicode="&#x143;" horiz-adv-x="673" 
d="M483 0l-323 619q8 -125 8 -236v-383h-57v685h77l325 -619q-8 116 -8 203v416h57v-685h-79zM258 758l-16 34l187 96l27 -52z" />
    <glyph glyph-name="nacute" unicode="&#x144;" horiz-adv-x="584" 
d="M445.5 492q37.5 -42 37.5 -118v-374h-58v366q0 63 -25 92t-74 29q-50 0 -88.5 -27.5t-73.5 -80.5v-379h-58v523h50l5 -89q71 100 176 100q71 0 108.5 -42zM199 645l-19 34l188 103l26 -52z" />
    <glyph glyph-name="Ncommaaccent" unicode="&#x145;" horiz-adv-x="673" 
d="M483 0l-323 619q8 -125 8 -236v-383h-57v685h77l325 -619q-8 116 -8 203v416h57v-685h-79zM368.5 -97q12.5 -12 12.5 -30q0 -12 -4.5 -24.5t-17.5 -41.5l-40 -86h-36l32 114q-22 13 -22 38q0 18 12.5 30t31.5 12t31.5 -12z" />
    <glyph glyph-name="ncommaaccent" unicode="&#x146;" horiz-adv-x="584" 
d="M445.5 492q37.5 -42 37.5 -118v-374h-58v366q0 63 -25 92t-74 29q-50 0 -88.5 -27.5t-73.5 -80.5v-379h-58v523h50l5 -89q71 100 176 100q71 0 108.5 -42zM323.5 -97q12.5 -12 12.5 -30q0 -12 -4.5 -24.5t-17.5 -41.5l-40 -86h-36l32 114q-22 13 -22 38q0 18 12.5 30
t31.5 12t31.5 -12z" />
    <glyph glyph-name="Ncaron" unicode="&#x147;" horiz-adv-x="673" 
d="M483 0l-323 619q8 -125 8 -236v-383h-57v685h77l325 -619q-8 116 -8 203v416h57v-685h-79zM366 756h-36l-130 101l26 31l122 -80l121 80l26 -31z" />
    <glyph glyph-name="ncaron" unicode="&#x148;" horiz-adv-x="584" 
d="M445.5 492q37.5 -42 37.5 -118v-374h-58v366q0 63 -25 92t-74 29q-50 0 -88.5 -27.5t-73.5 -80.5v-379h-58v523h50l5 -89q71 100 176 100q71 0 108.5 -42zM318 634h-36l-130 106l26 30l122 -84l121 84l26 -30z" />
    <glyph glyph-name="napostrophe" unicode="&#x149;" horiz-adv-x="584" 
d="M445.5 492q37.5 -42 37.5 -118v-374h-58v366q0 63 -25 92t-74 29q-50 0 -88.5 -27.5t-73.5 -80.5v-379h-58v523h50l5 -89q71 100 176 100q71 0 108.5 -42zM178.5 731q12.5 -12 12.5 -30q0 -10 -4.5 -22.5t-9.5 -25t-8 -18.5l-37 -89h-35l28 117q-22 13 -22 38
q0 18 12.5 30t31.5 12t31.5 -12z" />
    <glyph glyph-name="Eng" unicode="&#x14a;" horiz-adv-x="673" 
d="M547 -89.5q-15 -40.5 -44 -65t-82 -48.5l-16 39q39 20 60 37.5t32.5 47t12.5 79.5h-29l-319 618h-2q8 -125 8 -235v-383h-57v685h79l321 -619h2q-8 116 -8 203v416h57v-666q0 -68 -15 -108.5z" />
    <glyph glyph-name="eng" unicode="&#x14b;" horiz-adv-x="584" 
d="M445 491.5q38 -42.5 38 -117.5v-355q0 -68 -15 -108.5t-44 -64.5t-81 -49l-17 42q38 19 58.5 37.5t30.5 51t10 89.5v349q0 121 -99 121q-50 0 -88.5 -27.5t-73.5 -80.5v-379h-58v523h50l5 -89q71 100 176 100q70 0 108 -42.5z" />
    <glyph glyph-name="Omacron" unicode="&#x14c;" horiz-adv-x="691" 
d="M492 655.5q63 -40.5 98 -120.5t35 -193q0 -111 -34.5 -190.5t-97.5 -121t-148 -41.5q-83 0 -146 41t-98 120t-35 191q0 111 35 191t98.5 122t145.5 42q84 0 147 -40.5zM187 568.5q-58 -76.5 -58 -227.5q0 -149 58.5 -225t157.5 -76q103 0 160 75.5t57 226.5
q0 152 -57.5 227.5t-159.5 75.5q-100 0 -158 -76.5zM218 847h241v-47h-241v47z" />
    <glyph glyph-name="omacron" unicode="&#x14d;" horiz-adv-x="571" 
d="M448.5 462.5q58.5 -71.5 58.5 -199.5q0 -127 -59.5 -200.5t-162.5 -73.5q-104 0 -162.5 72.5t-58.5 199.5q0 83 27 145t77 95t118 33q104 0 162.5 -71.5zM168 428q-42 -57 -42 -167q0 -109 41.5 -166t117.5 -57t118.5 57t42.5 168q0 109 -41.5 165.5t-118.5 56.5
q-76 0 -118 -57zM165 723h241v-47h-241v47z" />
    <glyph glyph-name="Obreve" unicode="&#x14e;" horiz-adv-x="691" 
d="M492 655.5q63 -40.5 98 -120.5t35 -193q0 -111 -34.5 -190.5t-97.5 -121t-148 -41.5q-83 0 -146 41t-98 120t-35 191q0 111 35 191t98.5 122t145.5 42q84 0 147 -40.5zM187 568.5q-58 -76.5 -58 -227.5q0 -149 58.5 -225t157.5 -76q103 0 160 75.5t57 226.5
q0 152 -57.5 227.5t-159.5 75.5q-100 0 -158 -76.5zM251 793.5q-36 28.5 -43 71.5l40 9q10 -29 33 -45.5t57 -16.5t57.5 16.5t33.5 45.5l40 -9q-7 -43 -43.5 -71.5t-87.5 -28.5t-87 28.5z" />
    <glyph glyph-name="obreve" unicode="&#x14f;" horiz-adv-x="571" 
d="M448.5 462.5q58.5 -71.5 58.5 -199.5q0 -127 -59.5 -200.5t-162.5 -73.5q-104 0 -162.5 72.5t-58.5 199.5q0 83 27 145t77 95t118 33q104 0 162.5 -71.5zM168 428q-42 -57 -42 -167q0 -109 41.5 -166t117.5 -57t118.5 57t42.5 168q0 109 -41.5 165.5t-118.5 56.5
q-76 0 -118 -57zM197.5 683q-35.5 30 -42.5 80l40 9q20 -72 90 -72q71 0 91 72l40 -9q-7 -50 -43 -80t-88 -30t-87.5 30z" />
    <glyph glyph-name="Ohungarumlaut" unicode="&#x150;" horiz-adv-x="691" 
d="M492 655.5q63 -40.5 98 -120.5t35 -193q0 -111 -34.5 -190.5t-97.5 -121t-148 -41.5q-83 0 -146 41t-98 120t-35 191q0 111 35 191t98.5 122t145.5 42q84 0 147 -40.5zM187 568.5q-58 -76.5 -58 -227.5q0 -149 58.5 -225t157.5 -76q103 0 160 75.5t57 226.5
q0 152 -57.5 227.5t-159.5 75.5q-100 0 -158 -76.5zM407 768l-39 18l79 151l53 -27zM286 773l-39 17l71 147l52 -27z" />
    <glyph glyph-name="ohungarumlaut" unicode="&#x151;" horiz-adv-x="571" 
d="M448.5 462.5q58.5 -71.5 58.5 -199.5q0 -127 -59.5 -200.5t-162.5 -73.5q-104 0 -162.5 72.5t-58.5 199.5q0 83 27 145t77 95t118 33q104 0 162.5 -71.5zM168 428q-42 -57 -42 -167q0 -109 41.5 -166t117.5 -57t118.5 57t42.5 168q0 109 -41.5 165.5t-118.5 56.5
q-76 0 -118 -57zM359 642l-38 18l79 151l52 -27zM238 647l-38 17l71 147l52 -28z" />
    <glyph glyph-name="OE" unicode="&#x152;" horiz-adv-x="875" 
d="M403 0q-35 -11 -69 -11q-78 0 -138.5 41t-95 120.5t-34.5 190.5q0 110 34.5 190.5t95.5 122.5t138 42q36 0 72 -11h411l-7 -50h-317q50 -38 78.5 -103t32.5 -152h168v-50h-167q-2 -97 -31.5 -168t-83.5 -112h334v-50h-421zM155.5 174q26.5 -68 73 -101t106.5 -33
q96 0 151.5 77t55.5 230q0 147 -56 222.5t-151 75.5q-93 0 -149.5 -77t-56.5 -227q0 -99 26.5 -167z" />
    <glyph glyph-name="oe" unicode="&#x153;" horiz-adv-x="920" 
d="M857 239h-350q5 -102 49 -151.5t114 -49.5q41 0 73 12.5t68 39.5l27 -37q-38 -32 -79.5 -48t-91.5 -16q-68 0 -116.5 34t-75.5 97q-27 -63 -75 -97t-115 -34q-104 0 -162.5 72.5t-58.5 199.5q0 83 27 145t77 95t118 33q69 0 117 -33.5t74 -95.5q26 62 71 95.5t107 33.5
q99 0 151.5 -67.5t52.5 -185.5q0 -22 -2 -42zM801 299q0 88 -36 137.5t-108 49.5q-65 0 -105.5 -50t-44.5 -152h294v15zM403.5 95q42.5 57 42.5 168q0 109 -41.5 165.5t-118.5 56.5q-76 0 -118 -57t-42 -167q0 -109 41.5 -166t117.5 -57t118.5 57z" />
    <glyph glyph-name="Racute" unicode="&#x154;" horiz-adv-x="590" 
d="M171 307v-307h-60v685h166q244 0 244 -186q0 -74 -39 -118t-114 -63l188 -318h-72l-176 307h-137zM457 499q0 70 -43 103.5t-139 33.5h-104v-280h114q172 0 172 143zM207 758l-16 34l187 96l27 -52z" />
    <glyph glyph-name="racute" unicode="&#x155;" horiz-adv-x="373" 
d="M361 528l-11 -55q-22 6 -46 6q-54 0 -86.5 -39t-53.5 -122v-318h-58v523h50l5 -117q21 65 57.5 96.5t90.5 31.5q31 0 52 -6zM134 645l-19 34l188 103l26 -52z" />
    <glyph glyph-name="Rcommaaccent" unicode="&#x156;" horiz-adv-x="590" 
d="M171 307v-307h-60v685h166q244 0 244 -186q0 -74 -39 -118t-114 -63l188 -318h-72l-176 307h-137zM457 499q0 70 -43 103.5t-139 33.5h-104v-280h114q172 0 172 143zM337.5 -97q12.5 -12 12.5 -30q0 -12 -4.5 -24.5t-17.5 -41.5l-40 -86h-36l32 114q-22 13 -22 38
q0 18 12.5 30t31.5 12t31.5 -12z" />
    <glyph glyph-name="rcommaaccent" unicode="&#x157;" horiz-adv-x="373" 
d="M361 528l-11 -55q-22 6 -46 6q-54 0 -86.5 -39t-53.5 -122v-318h-58v523h50l5 -117q21 65 57.5 96.5t90.5 31.5q31 0 52 -6zM166.5 -97q12.5 -12 12.5 -30q0 -12 -4.5 -24.5t-17.5 -41.5l-40 -86h-36l32 114q-22 13 -22 38q0 18 12.5 30t31.5 12t31.5 -12z" />
    <glyph glyph-name="Rcaron" unicode="&#x158;" horiz-adv-x="590" 
d="M171 307v-307h-60v685h166q244 0 244 -186q0 -74 -39 -118t-114 -63l188 -318h-72l-176 307h-137zM457 499q0 70 -43 103.5t-139 33.5h-104v-280h114q172 0 172 143zM315 756h-36l-130 101l26 31l122 -80l121 80l26 -31z" />
    <glyph glyph-name="rcaron" unicode="&#x159;" horiz-adv-x="373" 
d="M361 528l-11 -55q-22 6 -46 6q-54 0 -86.5 -39t-53.5 -122v-318h-58v523h50l5 -117q21 65 57.5 96.5t90.5 31.5q31 0 52 -6zM254 634h-36l-130 106l26 30l122 -84l121 84l26 -30z" />
    <glyph glyph-name="Sacute" unicode="&#x15a;" horiz-adv-x="539" 
d="M375.5 677.5q45.5 -18.5 88.5 -57.5l-36 -39q-38 34 -75 49t-84 15q-64 0 -103 -31.5t-39 -84.5q0 -36 14.5 -59.5t48.5 -42t97 -37.5q68 -21 110 -45t65 -62t23 -96t-28 -103t-79.5 -70t-119.5 -25q-128 0 -219 86l36 39q39 -36 82 -55t100 -19q74 0 120.5 39t46.5 106
q0 42 -15.5 69t-50 46.5t-97.5 39.5q-105 32 -150 74t-45 114q0 48 25.5 86.5t71 60t104.5 21.5q63 0 108.5 -18.5zM184 758l-16 34l187 96l27 -52z" />
    <glyph glyph-name="sacute" unicode="&#x15b;" horiz-adv-x="464" 
d="M323 519.5q40 -14.5 78 -43.5l-28 -39q-35 26 -66.5 37.5t-70.5 11.5q-52 0 -84 -24t-32 -64q0 -38 27.5 -59t99.5 -40q89 -23 128.5 -58t39.5 -100q0 -70 -54 -111t-135 -41q-60 0 -105 17.5t-82 49.5l33 38q34 -28 70.5 -42t82.5 -14q58 0 93.5 26.5t35.5 72.5
q0 33 -12 53t-41 34t-85 30q-83 22 -119.5 55.5t-36.5 88.5q0 39 23 70t62.5 48.5t88.5 17.5t89 -14.5zM141 645l-19 34l188 103l26 -52z" />
    <glyph glyph-name="Scircumflex" unicode="&#x15c;" horiz-adv-x="539" 
d="M375.5 677.5q45.5 -18.5 88.5 -57.5l-36 -39q-38 34 -75 49t-84 15q-64 0 -103 -31.5t-39 -84.5q0 -36 14.5 -59.5t48.5 -42t97 -37.5q68 -21 110 -45t65 -62t23 -96t-28 -103t-79.5 -70t-119.5 -25q-128 0 -219 86l36 39q39 -36 82 -55t100 -19q74 0 120.5 39t46.5 106
q0 42 -15.5 69t-50 46.5t-97.5 39.5q-105 32 -150 74t-45 114q0 48 25.5 86.5t71 60t104.5 21.5q63 0 108.5 -18.5zM149 762l-26 30l130 102h36l129 -102l-26 -30l-121 80z" />
    <glyph glyph-name="scircumflex" unicode="&#x15d;" horiz-adv-x="464" 
d="M323 519.5q40 -14.5 78 -43.5l-28 -39q-35 26 -66.5 37.5t-70.5 11.5q-52 0 -84 -24t-32 -64q0 -38 27.5 -59t99.5 -40q89 -23 128.5 -58t39.5 -100q0 -70 -54 -111t-135 -41q-60 0 -105 17.5t-82 49.5l33 38q34 -28 70.5 -42t82.5 -14q58 0 93.5 26.5t35.5 72.5
q0 33 -12 53t-41 34t-85 30q-83 22 -119.5 55.5t-36.5 88.5q0 39 23 70t62.5 48.5t88.5 17.5t89 -14.5zM223 779h36l130 -105l-26 -31l-122 85l-121 -85l-26 31z" />
    <glyph glyph-name="Scedilla" unicode="&#x15e;" horiz-adv-x="539" 
d="M429.5 50q-55.5 -54 -149.5 -60v-54q46 -4 69 -24.5t23 -52.5q0 -40 -30.5 -63.5t-75.5 -23.5q-48 0 -80 22l19 36q27 -16 60 -16q24 0 39.5 11.5t15.5 33.5q0 23 -21 33.5t-68 11.5l8 86q-116 6 -200 85l36 39q39 -36 82 -55t100 -19q74 0 120.5 39t46.5 106
q0 42 -15.5 69t-50 46.5t-97.5 39.5q-105 32 -150 74t-45 114q0 48 25.5 86.5t71 60t104.5 21.5q63 0 108.5 -18.5t88.5 -57.5l-36 -39q-38 34 -75 49t-84 15q-64 0 -103 -31.5t-39 -84.5q0 -36 14.5 -59.5t48.5 -42t97 -37.5q68 -21 110 -45t65 -62t23 -96
q0 -83 -55.5 -137z" />
    <glyph glyph-name="scedilla" unicode="&#x15f;" horiz-adv-x="464" 
d="M368 35.5q-47 -40.5 -121 -45.5v-54q47 -4 69.5 -24.5t22.5 -52.5q0 -40 -30 -63.5t-75 -23.5q-50 0 -80 22l18 36q28 -16 60 -16q25 0 40 11.5t15 33.5q0 23 -21 33.5t-68 11.5l9 86q-53 3 -93 20t-75 46l33 38q34 -28 70.5 -42t82.5 -14q58 0 93.5 26.5t35.5 72.5
q0 33 -12 53t-41 34t-85 30q-83 22 -119.5 55.5t-36.5 88.5q0 39 23 70t62.5 48.5t88.5 17.5t89 -14.5t78 -43.5l-28 -39q-35 26 -66.5 37.5t-70.5 11.5q-52 0 -84 -24t-32 -64q0 -38 27.5 -59t99.5 -40q89 -23 128.5 -58t39.5 -100t-47 -105.5z" />
    <glyph glyph-name="Scaron" unicode="&#x160;" horiz-adv-x="539" 
d="M375.5 677.5q45.5 -18.5 88.5 -57.5l-36 -39q-38 34 -75 49t-84 15q-64 0 -103 -31.5t-39 -84.5q0 -36 14.5 -59.5t48.5 -42t97 -37.5q68 -21 110 -45t65 -62t23 -96t-28 -103t-79.5 -70t-119.5 -25q-128 0 -219 86l36 39q39 -36 82 -55t100 -19q74 0 120.5 39t46.5 106
q0 42 -15.5 69t-50 46.5t-97.5 39.5q-105 32 -150 74t-45 114q0 48 25.5 86.5t71 60t104.5 21.5q63 0 108.5 -18.5zM292 756h-36l-130 101l26 31l122 -80l121 80l26 -31z" />
    <glyph glyph-name="scaron" unicode="&#x161;" horiz-adv-x="464" 
d="M323 519.5q40 -14.5 78 -43.5l-28 -39q-35 26 -66.5 37.5t-70.5 11.5q-52 0 -84 -24t-32 -64q0 -38 27.5 -59t99.5 -40q89 -23 128.5 -58t39.5 -100q0 -70 -54 -111t-135 -41q-60 0 -105 17.5t-82 49.5l33 38q34 -28 70.5 -42t82.5 -14q58 0 93.5 26.5t35.5 72.5
q0 33 -12 53t-41 34t-85 30q-83 22 -119.5 55.5t-36.5 88.5q0 39 23 70t62.5 48.5t88.5 17.5t89 -14.5zM260 634h-36l-130 106l26 30l122 -84l121 84l26 -30z" />
    <glyph glyph-name="Tcedilla" unicode="&#x162;" horiz-adv-x="495" 
d="M278 16v-80q47 -4 70 -24.5t23 -52.5q0 -40 -30.5 -63.5t-76.5 -23.5q-48 0 -78 22l18 36q28 -16 59 -16q25 0 40.5 11.5t15.5 33.5q0 23 -21 33.5t-68 11.5l9 96h-21v632h-203v53h470l-7 -53h-201z" />
    <glyph glyph-name="tcedilla" unicode="&#x163;" horiz-adv-x="341" 
d="M311.5 -88.5q22.5 -20.5 22.5 -52.5q0 -40 -30 -63.5t-75 -23.5q-50 0 -80 22l18 36q28 -16 60 -16q25 0 40 11.5t15 33.5q0 23 -21 33.5t-68 11.5l9 88q-46 8 -71 42.5t-25 92.5v349h-88v47h88v125l58 7v-132h135l-7 -47h-128v-346q0 -46 19 -68.5t58 -22.5q41 0 80 24
l23 -41q-48 -30 -102 -33v-53q47 -4 69.5 -24.5z" />
    <glyph glyph-name="Tcaron" unicode="&#x164;" horiz-adv-x="495" 
d="M277 632v-632h-59v632h-203v53h470l-7 -53h-201zM263 756h-36l-130 101l26 31l122 -80l121 80l26 -31z" />
    <glyph glyph-name="tcaron" unicode="&#x165;" horiz-adv-x="341" 
d="M234 -11q-60 0 -94 35.5t-34 102.5v349h-88v47h88v125l58 7v-132h135l-7 -47h-128v-346q0 -46 19 -68.5t58 -22.5q41 0 80 24l23 -41q-50 -33 -110 -33zM266 575l-36 5l17 165l56 -6z" />
    <glyph glyph-name="Tbar" unicode="&#x166;" horiz-adv-x="500" 
d="M278 384h125v-47h-125v-338h-60v338h-123v47h123v247h-203v54h470l-7 -54h-200v-247z" />
    <glyph glyph-name="tbar" unicode="&#x167;" horiz-adv-x="341" 
d="M234 -11q-60 0 -94 35.5t-34 102.5v176h-83v47h83v126h-88v47h88v125l58 7v-132h135l-7 -47h-128v-126h127l-7 -47h-120v-173q0 -46 19 -68.5t58 -22.5q41 0 80 24l23 -41q-50 -33 -110 -33z" />
    <glyph glyph-name="Utilde" unicode="&#x168;" horiz-adv-x="652" 
d="M493 50.5q-58 -61.5 -167 -61.5q-111 0 -168 61t-57 164v471h60v-466q0 -86 40.5 -132t124.5 -46t124 46.5t40 131.5v466h61v-471q0 -102 -58 -163.5zM352.5 799.5q-16.5 6.5 -37.5 19.5q-16 10 -25.5 14.5t-20.5 4.5q-19 0 -30 -8.5t-26 -31.5l-36 19q38 67 93 67
q15 0 29 -6t34 -18q3 -2 14.5 -8t21 -9.5t18.5 -3.5q15 0 27.5 10t27.5 34l36 -19q-35 -71 -88 -71q-21 0 -37.5 6.5z" />
    <glyph glyph-name="utilde" unicode="&#x169;" horiz-adv-x="579" 
d="M423 0l-3 93q-62 -104 -171 -104q-71 0 -109.5 41.5t-38.5 118.5v374h58v-368q0 -61 25.5 -89.5t77.5 -28.5q91 0 153 107v379h58v-523h-50zM313 673.5q-16 6.5 -39 19.5q-14 10 -24 14.5t-21 4.5q-19 0 -30 -8.5t-26 -31.5l-36 18q37 68 92 68q16 0 31 -6.5t33 -17.5
q3 -2 14.5 -8t21 -9.5t18.5 -3.5q15 0 27.5 10t27.5 33l36 -18q-17 -36 -40 -54t-48 -18q-21 1 -37 7.5z" />
    <glyph glyph-name="Umacron" unicode="&#x16a;" horiz-adv-x="652" 
d="M493 50.5q-58 -61.5 -167 -61.5q-111 0 -168 61t-57 164v471h60v-466q0 -86 40.5 -132t124.5 -46t124 46.5t40 131.5v466h61v-471q0 -102 -58 -163.5zM207 847h241v-47h-241v47z" />
    <glyph glyph-name="umacron" unicode="&#x16b;" horiz-adv-x="579" 
d="M423 0l-3 93q-62 -104 -171 -104q-71 0 -109.5 41.5t-38.5 118.5v374h58v-368q0 -61 25.5 -89.5t77.5 -28.5q91 0 153 107v379h58v-523h-50zM167 723h241v-47h-241v47z" />
    <glyph glyph-name="Ubreve" unicode="&#x16c;" horiz-adv-x="652" 
d="M493 50.5q-58 -61.5 -167 -61.5q-111 0 -168 61t-57 164v471h60v-466q0 -86 40.5 -132t124.5 -46t124 46.5t40 131.5v466h61v-471q0 -102 -58 -163.5zM240 793.5q-36 28.5 -43 71.5l40 9q10 -29 33 -45.5t57 -16.5t57.5 16.5t33.5 45.5l40 -9q-7 -43 -43.5 -71.5
t-87.5 -28.5t-87 28.5z" />
    <glyph glyph-name="ubreve" unicode="&#x16d;" horiz-adv-x="579" 
d="M423 0l-3 93q-62 -104 -171 -104q-71 0 -109.5 41.5t-38.5 118.5v374h58v-368q0 -61 25.5 -89.5t77.5 -28.5q91 0 153 107v379h58v-523h-50zM198.5 683q-35.5 30 -42.5 80l40 9q20 -72 90 -72q71 0 91 72l40 -9q-7 -50 -43 -80t-88 -30t-87.5 30z" />
    <glyph glyph-name="Uring" unicode="&#x16e;" horiz-adv-x="652" 
d="M493 50.5q-58 -61.5 -167 -61.5q-111 0 -168 61t-57 164v471h60v-466q0 -86 40.5 -132t124.5 -46t124 46.5t40 131.5v466h61v-471q0 -102 -58 -163.5zM399 920.5q28 -26.5 28 -67.5t-28 -67.5t-71 -26.5t-71 26.5t-28 67.5t28 67.5t71 26.5t71 -26.5zM287.5 896
q-14.5 -15 -14.5 -43t14.5 -43t40.5 -15t40.5 15t14.5 43t-14.5 43t-40.5 15t-40.5 -15z" />
    <glyph glyph-name="uring" unicode="&#x16f;" horiz-adv-x="579" 
d="M423 0l-3 93q-62 -104 -171 -104q-71 0 -109.5 41.5t-38.5 118.5v374h58v-368q0 -61 25.5 -89.5t77.5 -28.5q91 0 153 107v379h58v-523h-50zM357.5 794.5q27.5 -26.5 27.5 -67.5t-27.5 -67.5t-70.5 -26.5q-44 0 -71.5 26.5t-27.5 67.5t27.5 67.5t71.5 26.5
q43 0 70.5 -26.5zM245.5 769.5q-14.5 -15.5 -14.5 -42.5q0 -28 14.5 -43t41.5 -15q26 0 40.5 15t14.5 43q0 27 -14.5 42.5t-40.5 15.5q-27 0 -41.5 -15.5z" />
    <glyph glyph-name="Uhungarumlaut" unicode="&#x170;" horiz-adv-x="652" 
d="M493 50.5q-58 -61.5 -167 -61.5q-111 0 -168 61t-57 164v471h60v-466q0 -86 40.5 -132t124.5 -46t124 46.5t40 131.5v466h61v-471q0 -102 -58 -163.5zM396 768l-39 18l79 151l53 -27zM275 773l-39 17l71 147l52 -27z" />
    <glyph glyph-name="uhungarumlaut" unicode="&#x171;" horiz-adv-x="579" 
d="M423 0l-3 93q-62 -104 -171 -104q-71 0 -109.5 41.5t-38.5 118.5v374h58v-368q0 -61 25.5 -89.5t77.5 -28.5q91 0 153 107v379h58v-523h-50zM361 642l-38 18l79 151l52 -27zM240 647l-38 17l71 147l52 -28z" />
    <glyph glyph-name="Uogonek" unicode="&#x172;" horiz-adv-x="652" 
d="M551 214q0 -81 -37.5 -137.5t-108.5 -77.5q-66 -30 -93.5 -56t-27.5 -61q0 -25 16 -38.5t48 -13.5q26 0 57 7l-6 -49q-30 -6 -58 -6q-53 0 -82 25.5t-29 66.5q0 72 93 115q-110 1 -166 62t-56 163v471h60v-466q0 -86 40.5 -132t124.5 -46t124 46.5t40 131.5v466h61v-471z
" />
    <glyph glyph-name="uogonek" unicode="&#x173;" horiz-adv-x="579" 
d="M368 -156.5q16 -13.5 48 -13.5q25 0 56 7l-5 -49q-30 -6 -58 -6q-53 0 -82.5 26t-29.5 66q0 44 31 76.5t95 59.5l-3 83q-62 -104 -171 -104q-71 0 -109.5 41.5t-38.5 118.5v374h58v-368q0 -61 25.5 -89.5t77.5 -28.5q91 0 153 107v379h58l1 -523q-67 -30 -94.5 -56.5
t-27.5 -61.5q0 -25 16 -38.5z" />
    <glyph glyph-name="Wcircumflex" unicode="&#x174;" horiz-adv-x="810" 
d="M554 0l-150 618l-150 -618h-73l-151 685h61l130 -630l150 630h67l153 -630l131 630h57l-150 -685h-75zM283 762l-26 30l130 102h36l129 -102l-26 -30l-121 80z" />
    <glyph glyph-name="wcircumflex" unicode="&#x175;" horiz-adv-x="698" 
d="M467 0l-116 469l-118 -469h-77l-131 523h60l112 -478l122 478h66l120 -479l111 479h57l-128 -523h-78zM333 779h36l130 -105l-26 -31l-122 85l-121 -85l-26 31z" />
    <glyph glyph-name="Ycircumflex" unicode="&#x176;" horiz-adv-x="523" 
d="M292 0h-60v267l-219 418h67l184 -365l181 365h64l-217 -417v-268zM138 762l-26 30l130 102h36l129 -102l-26 -30l-121 80z" />
    <glyph glyph-name="ycircumflex" unicode="&#x177;" horiz-adv-x="468" 
d="M227 -102q-25 -39 -65 -64.5t-103 -37.5l-6 45q52 13 81.5 32t47 47.5t35.5 79.5h-20l-182 523h63l158 -480l155 480h61l-179 -525q-21 -61 -46 -100zM213 779h36l130 -105l-26 -31l-122 85l-121 -85l-26 31z" />
    <glyph glyph-name="Ydieresis" unicode="&#x178;" horiz-adv-x="523" 
d="M292 0h-60v267l-219 418h67l184 -365l181 365h64l-217 -417v-268zM193.5 856.5q11.5 -11.5 11.5 -28.5t-11.5 -28t-28.5 -11t-28.5 11t-11.5 28t11.5 28.5t28.5 11.5t28.5 -11.5zM383 856.5q11 -11.5 11 -28.5t-11 -28t-29 -11q-17 0 -28.5 11t-11.5 28t11.5 28.5
t28.5 11.5q18 0 29 -11.5z" />
    <glyph glyph-name="Zacute" unicode="&#x179;" horiz-adv-x="516" 
d="M104 53h358l-8 -53h-419v50l367 583h-329v52h395v-49zM176 758l-16 34l187 96l27 -52z" />
    <glyph glyph-name="zacute" unicode="&#x17a;" horiz-adv-x="422" 
d="M96 50h290l-6 -50h-352v45l292 428h-268v50h336v-45zM118 645l-19 34l188 103l26 -52z" />
    <glyph glyph-name="Zdotaccent" unicode="&#x17b;" horiz-adv-x="516" 
d="M104 53h358l-8 -53h-419v50l367 583h-329v52h395v-49zM294 867q12 -12 12 -30t-12 -29.5t-32 -11.5q-19 0 -31 11.5t-12 29.5t12 30t31 12q20 0 32 -12z" />
    <glyph glyph-name="zdotaccent" unicode="&#x17c;" horiz-adv-x="422" 
d="M96 50h290l-6 -50h-352v45l292 428h-268v50h336v-45zM247 741q12 -12 12 -30t-12 -30t-32 -12q-19 0 -31 12t-12 30t12 30t31 12q20 0 32 -12z" />
    <glyph glyph-name="Zcaron" unicode="&#x17d;" horiz-adv-x="516" 
d="M104 53h358l-8 -53h-419v50l367 583h-329v52h395v-49zM284 756h-36l-130 101l26 31l122 -80l121 80l26 -31z" />
    <glyph glyph-name="zcaron" unicode="&#x17e;" horiz-adv-x="422" 
d="M96 50h290l-6 -50h-352v45l292 428h-268v50h336v-45zM237 634h-36l-130 106l26 30l122 -84l121 84l26 -30z" />
    <glyph glyph-name="florin" unicode="&#x192;" horiz-adv-x="315" 
d="M186.5 674q-22.5 -21 -22.5 -67v-84h137l-7 -47h-130v-403v-54q0 -68 -15 -108.5t-44 -65t-82 -48.5l-17 42q38 19 58.5 37.5t31 51t10.5 89.5v378v81h-87v47h87v86q0 62 38.5 98t106.5 36q62 0 121 -28l-19 -43q-52 23 -99 23q-45 0 -67.5 -21z" />
    <glyph glyph-name="AEacute" unicode="&#x1fc;" horiz-adv-x="784" 
d="M737 0h-276l-46 184h-285l-70 -184h-60l267 685h423l-7 -50h-325l66 -256h258v-49h-245l72 -280h228v-50zM302 637l-153 -402h254zM369 758l-16 34l187 96l27 -52z" />
    <glyph glyph-name="aeacute" unicode="&#x1fd;" horiz-adv-x="849" 
d="M786 239h-350q6 -102 49.5 -151.5t113.5 -49.5q41 0 73 12.5t68 39.5l28 -37q-39 -32 -80.5 -48t-91.5 -16q-63 0 -110.5 27.5t-75.5 79.5q-40 -57 -85 -82t-105 -25q-76 0 -120 43t-44 113q0 81 58.5 125.5t160.5 44.5h100v50q0 63 -28.5 91.5t-92.5 28.5
q-60 0 -142 -30l-16 44q88 35 165 35q66 0 105 -25.5t55 -75.5q54 101 166 101q97 0 149 -67.5t52 -185.5q0 -22 -2 -42zM730 299q0 88 -36 137.5t-107 49.5q-65 0 -106 -50t-45 -152h294v15zM316.5 61q38.5 25 74.5 80q-16 49 -16 115v2v14h-92q-79 0 -121.5 -31.5
t-42.5 -92.5q0 -54 29 -83t81 -29q49 0 87.5 25zM324 645l-19 34l188 103l26 -52z" />
    <glyph glyph-name="Oslashacute" unicode="&#x1fe;" horiz-adv-x="691" 
d="M584 548.5q41 -83.5 41 -206.5q0 -111 -34.5 -190.5t-97.5 -121t-148 -41.5q-37 0 -77 10l-33 -119l-53 15l38 123q-73 37 -113.5 119.5t-40.5 203.5q0 111 35 191t98.5 122t145.5 42q40 0 76 -9l35 123l53 -14l-40 -127q74 -37 115 -120.5zM158 166.5
q29 -68.5 83 -100.5l169 570q-30 9 -65 9q-100 0 -158 -76.5t-58 -227.5q0 -106 29 -174.5zM505 115.5q57 75.5 57 226.5q0 216 -114 279l-169 -571q30 -10 66 -10q103 0 160 75.5zM251 770l-16 34l187 96l27 -52z" />
    <glyph glyph-name="oslashacute" unicode="&#x1ff;" horiz-adv-x="571" 
d="M478.5 414.5q28.5 -62.5 28.5 -151.5q0 -127 -59.5 -200.5t-162.5 -73.5q-31 0 -61 8l-41 -122l-49 14l43 127q-54 31 -83.5 94t-29.5 151q0 83 27 145t77 95t118 33q33 0 63 -8l39 122l49 -14l-41 -127q54 -30 82.5 -92.5zM199 61l139 417q-22 7 -52 7q-76 0 -118 -57
t-42 -167q0 -150 73 -200zM403.5 95q42.5 57 42.5 168q0 149 -73 199l-138 -417q22 -7 50 -7q76 0 118.5 57zM187 645l-19 34l188 103l26 -52z" />
    <glyph glyph-name="Scommaaccent" unicode="&#x218;" horiz-adv-x="539" 
d="M375.5 677.5q45.5 -18.5 88.5 -57.5l-36 -39q-38 34 -75 49t-84 15q-64 0 -103 -31.5t-39 -84.5q0 -36 14.5 -59.5t48.5 -42t97 -37.5q68 -21 110 -45t65 -62t23 -96t-28 -103t-79.5 -70t-119.5 -25q-128 0 -219 86l36 39q39 -36 82 -55t100 -19q74 0 120.5 39t46.5 106
q0 42 -15.5 69t-50 46.5t-97.5 39.5q-105 32 -150 74t-45 114q0 48 25.5 86.5t71 60t104.5 21.5q63 0 108.5 -18.5zM295.5 -97q12.5 -12 12.5 -30q0 -12 -4.5 -24.5t-17.5 -41.5l-40 -86h-36l32 114q-22 13 -22 38q0 18 12.5 30t31.5 12t31.5 -12z" />
    <glyph glyph-name="scommaaccent" unicode="&#x219;" horiz-adv-x="464" 
d="M323 519.5q40 -14.5 78 -43.5l-28 -39q-35 26 -66.5 37.5t-70.5 11.5q-52 0 -84 -24t-32 -64q0 -38 27.5 -59t99.5 -40q89 -23 128.5 -58t39.5 -100q0 -70 -54 -111t-135 -41q-60 0 -105 17.5t-82 49.5l33 38q34 -28 70.5 -42t82.5 -14q58 0 93.5 26.5t35.5 72.5
q0 33 -12 53t-41 34t-85 30q-83 22 -119.5 55.5t-36.5 88.5q0 39 23 70t62.5 48.5t88.5 17.5t89 -14.5zM264.5 -97q12.5 -12 12.5 -30q0 -12 -4.5 -24.5t-17.5 -41.5l-40 -86h-36l32 114q-22 13 -22 38q0 18 12.5 30t31.5 12t31.5 -12z" />
    <glyph glyph-name="uni021A" unicode="&#x21a;" horiz-adv-x="495" 
d="M277 632v-632h-59v632h-203v53h470l-7 -53h-201zM279.5 -97q12.5 -12 12.5 -30q0 -12 -4.5 -24.5t-17.5 -41.5l-40 -86h-36l32 114q-22 13 -22 38q0 18 12.5 30t31.5 12t31.5 -12z" />
    <glyph glyph-name="uni021B" unicode="&#x21b;" horiz-adv-x="341" 
d="M234 -11q-60 0 -94 35.5t-34 102.5v349h-88v47h88v125l58 7v-132h135l-7 -47h-128v-346q0 -46 19 -68.5t58 -22.5q41 0 80 24l23 -41q-50 -33 -110 -33zM259.5 -97q12.5 -12 12.5 -30q0 -12 -4.5 -24.5t-17.5 -41.5l-40 -86h-36l32 114q-22 13 -22 38q0 18 12.5 30
t31.5 12t31.5 -12z" />
    <glyph glyph-name="jdotless" unicode="&#x237;" horiz-adv-x="270" 
d="M149 -89.5q-15 -40.5 -44 -65t-82 -48.5l-17 42q38 19 58.5 37.5t31 51t10.5 89.5v506h58v-504q0 -68 -15 -108.5z" />
    <glyph glyph-name="uni02BC" unicode="&#x2bc;" horiz-adv-x="154" 
d="M111.5 731q12.5 -12 12.5 -30q0 -10 -4.5 -22.5t-9.5 -25t-8 -18.5l-37 -89h-35l28 117q-22 13 -22 38q0 18 12.5 30t31.5 12t31.5 -12z" />
    <glyph glyph-name="circumflex" unicode="&#x2c6;" horiz-adv-x="355" 
d="M159 779h36l130 -105l-26 -31l-122 85l-121 -85l-26 31z" />
    <glyph glyph-name="caron" unicode="&#x2c7;" horiz-adv-x="355" 
d="M196 633h-36l-130 106l26 30l122 -84l121 84l26 -30z" />
    <glyph glyph-name="breve" unicode="&#x2d8;" horiz-adv-x="321" 
d="M72.5 683q-35.5 30 -42.5 80l40 9q20 -72 90 -72q71 0 91 72l40 -9q-7 -50 -43 -80t-88 -30t-87.5 30z" />
    <glyph glyph-name="dotaccent" unicode="&#x2d9;" horiz-adv-x="147" 
d="M105 741q12 -12 12 -30t-12 -30t-32 -12q-19 0 -31 12t-12 30t12 30t31 12q20 0 32 -12z" />
    <glyph glyph-name="ring" unicode="&#x2da;" horiz-adv-x="255" 
d="M199.5 794.5q27.5 -26.5 27.5 -67.5t-27.5 -67.5t-70.5 -26.5q-44 0 -71.5 26.5t-27.5 67.5t27.5 67.5t71.5 26.5q43 0 70.5 -26.5zM87.5 769.5q-14.5 -15.5 -14.5 -42.5q0 -28 14.5 -43t41.5 -15q26 0 40.5 15t14.5 43q0 27 -14.5 42.5t-40.5 15.5q-27 0 -41.5 -15.5z
" />
    <glyph glyph-name="ogonek" unicode="&#x2db;" horiz-adv-x="256" 
d="M78.5 -56.5q-27.5 -26.5 -27.5 -61.5q0 -24 16 -38t48 -14q25 0 57 7l-6 -48q-35 -7 -58 -7q-53 0 -82 25.5t-29 66.5q0 49 40 85t123 66l13 -25q-67 -30 -94.5 -56.5z" />
    <glyph glyph-name="tilde" unicode="&#x2dc;" horiz-adv-x="361" 
d="M206 673.5q-16 6.5 -39 19.5q-14 10 -24 14.5t-21 4.5q-19 0 -30 -8.5t-26 -31.5l-36 18q37 68 92 68q16 0 31 -6.5t33 -17.5q3 -2 14.5 -8t21 -9.5t18.5 -3.5q15 0 27.5 10t27.5 33l36 -18q-17 -36 -40 -54t-48 -18q-21 1 -37 7.5z" />
    <glyph glyph-name="hungarumlaut" unicode="&#x2dd;" horiz-adv-x="312" 
d="M189 642l-38 18l79 151l52 -27zM68 647l-38 17l71 147l52 -28z" />
    <glyph glyph-name="gravecomb" unicode="&#x300;" horiz-adv-x="0" 
d="M237 632l-198 78l26 52l188 -96z" />
    <glyph glyph-name="acutecomb" unicode="&#x301;" horiz-adv-x="0" 
d="M55 632l-16 34l187 96l27 -52z" />
    <glyph glyph-name="uni0302" unicode="&#x302;" horiz-adv-x="0" 
d="M65 636l-26 30l130 102h36l129 -102l-26 -30l-121 80z" />
    <glyph glyph-name="tildecomb" unicode="&#x303;" horiz-adv-x="0" 
d="M214.5 673.5q-16.5 6.5 -37.5 19.5q-16 10 -25.5 14.5t-20.5 4.5q-19 0 -30 -8.5t-26 -31.5l-36 19q38 67 93 67q15 0 29 -6t34 -18q3 -2 14.5 -8t21 -9.5t18.5 -3.5q15 0 27.5 10t27.5 34l36 -19q-35 -71 -88 -71q-21 0 -37.5 6.5z" />
    <glyph glyph-name="uni0304" unicode="&#x304;" horiz-adv-x="0" 
d="M39 723h241v-47h-241v47z" />
    <glyph glyph-name="uni0306" unicode="&#x306;" horiz-adv-x="0" 
d="M82 667.5q-36 28.5 -43 71.5l40 9q10 -29 33 -45.5t57 -16.5t57.5 16.5t33.5 45.5l40 -9q-7 -43 -43.5 -71.5t-87.5 -28.5t-87 28.5z" />
    <glyph glyph-name="uni0307" unicode="&#x307;" horiz-adv-x="0" 
d="M114 741q12 -12 12 -30t-12 -29.5t-32 -11.5q-19 0 -31 11.5t-12 29.5t12 30t31 12q20 0 32 -12z" />
    <glyph glyph-name="uni0308" unicode="&#x308;" horiz-adv-x="0" 
d="M107.5 730.5q11.5 -11.5 11.5 -28.5t-11.5 -28t-28.5 -11t-28.5 11t-11.5 28t11.5 28.5t28.5 11.5t28.5 -11.5zM297 730.5q11 -11.5 11 -28.5t-11 -28t-29 -11q-17 0 -28.5 11t-11.5 28t11.5 28.5t28.5 11.5q18 0 29 -11.5z" />
    <glyph glyph-name="uni030A" unicode="&#x30a;" horiz-adv-x="0" 
d="M209 794.5q28 -26.5 28 -67.5t-28 -67.5t-71 -26.5t-71 26.5t-28 67.5t28 67.5t71 26.5t71 -26.5zM97.5 770q-14.5 -15 -14.5 -43t14.5 -43t40.5 -15t40.5 15t14.5 43t-14.5 43t-40.5 15t-40.5 -15z" />
    <glyph glyph-name="uni030B" unicode="&#x30b;" horiz-adv-x="0" 
d="M199 642l-39 18l79 151l53 -27zM78 647l-39 17l71 147l52 -27z" />
    <glyph glyph-name="uni030C" unicode="&#x30c;" horiz-adv-x="0" 
d="M205 630h-36l-130 101l26 31l122 -80l121 80l26 -31z" />
    <glyph glyph-name="uni0313" unicode="&#x313;" horiz-adv-x="0" 
d="M114.5 761q12.5 -12 12.5 -30q0 -12 -4.5 -24.5t-17.5 -41.5l-40 -86h-36l32 114q-22 13 -22 38q0 18 12.5 30t31.5 12t31.5 -12z" />
    <glyph glyph-name="uni0314" unicode="&#x314;" horiz-adv-x="0" 
d="M16.5 599q-12.5 12 -12.5 30q0 12 4.5 24.5t17.5 41.5l40 86h36l-32 -114q22 -13 22 -38q0 -18 -12.5 -30t-31.5 -12t-31.5 12z" />
    <glyph glyph-name="uni0326" unicode="&#x326;" horiz-adv-x="0" 
d="M111.5 -97q12.5 -12 12.5 -30q0 -12 -4.5 -24.5t-17.5 -41.5l-40 -86h-36l32 114q-22 13 -22 38q0 18 12.5 30t31.5 12t31.5 -12z" />
    <glyph glyph-name="uni0327" unicode="&#x327;" horiz-adv-x="0" 
d="M192.5 -88q22.5 -20 22.5 -52q0 -41 -30 -64t-75 -23q-48 0 -80 21l18 36q27 -15 61 -15q24 0 39.5 11t15.5 34q0 22 -21.5 33t-67.5 11l10 112h38v-80q47 -4 69.5 -24z" />
    <glyph glyph-name="tonos" unicode="&#x384;" horiz-adv-x="159" 
d="M73 600l-43 7l34 167l65 -12z" />
    <glyph glyph-name="dieresistonos" unicode="&#x385;" horiz-adv-x="338" 
d="M189 716l-42 7l29 147l63 -12zM98.5 700q11.5 -11 11.5 -28t-11.5 -28t-28.5 -11t-28.5 11t-11.5 28t11.5 28t28.5 11t28.5 -11zM296.5 700q11.5 -11 11.5 -28t-11.5 -28t-28.5 -11t-28.5 11t-11.5 28t11.5 28t28.5 11t28.5 -11z" />
    <glyph glyph-name="Alphatonos" unicode="&#x386;" horiz-adv-x="565" 
d="M137 187l-60 -187h-61l229 685h75l228 -685h-63l-60 187h-288zM282 636l-129 -398h256zM87 523l-43 8l34 167l69 -13z" />
    <glyph glyph-name="Epsilontonos" unicode="&#x388;" horiz-adv-x="512" 
d="M171 635v-255h243v-50h-243v-280h295v-50h-355v685h348l-7 -50h-281zM21 523l-43 8l34 167l69 -13z" />
    <glyph glyph-name="Etatonos" unicode="&#x389;" horiz-adv-x="670" 
d="M171 335v-335h-60v685h60v-299h328v299h60v-685h-60v335h-328zM21 523l-43 8l34 167l69 -13z" />
    <glyph glyph-name="Iotatonos" unicode="&#x38a;" horiz-adv-x="282" 
d="M111 0v685h60v-685h-60zM21 523l-43 8l34 167l69 -13z" />
    <glyph glyph-name="Omicrontonos" unicode="&#x38c;" horiz-adv-x="691" 
d="M492 655.5q63 -40.5 98 -120.5t35 -193q0 -111 -34.5 -190.5t-97.5 -121t-148 -41.5q-83 0 -146 41t-98 120t-35 191q0 111 35 191t98.5 122t145.5 42q84 0 147 -40.5zM187 568.5q-58 -76.5 -58 -227.5q0 -149 58.5 -225t157.5 -76q103 0 160 75.5t57 226.5
q0 152 -57.5 227.5t-159.5 75.5q-100 0 -158 -76.5zM38 523l-43 8l34 167l69 -13z" />
    <glyph glyph-name="Upsilontonos" unicode="&#x38e;" horiz-adv-x="523" 
d="M292 0h-60v267l-219 418h67l184 -365l181 365h64l-217 -417v-268zM-59 523l-43 8l34 167l69 -13z" />
    <glyph glyph-name="Omegatonos" unicode="&#x38f;" horiz-adv-x="691" 
d="M493 655.5q63 -40.5 97.5 -119t34.5 -190.5q0 -117 -34.5 -186t-109.5 -107h122v-53h-199v52q80 29 119 100t39 194q0 149 -57.5 224t-159.5 75q-100 0 -158 -75.5t-58 -224.5q0 -123 39 -192t118 -101v-52h-198v53h119q-73 38 -107 107t-34 185q0 109 35 188t98.5 121
t145.5 42q85 0 148 -40.5zM44 523l-43 8l34 167l69 -13z" />
    <glyph glyph-name="iotadieresistonos" unicode="&#x390;" horiz-adv-x="263" 
d="M169.5 66.5q10.5 -18.5 36.5 -29.5l-18 -45q-48 13 -67.5 41.5t-19.5 85.5v404h58v-399q0 -39 10.5 -57.5zM150 716l-42 7l29 147l63 -12zM59.5 700q11.5 -11 11.5 -28t-11.5 -28t-28.5 -11t-28.5 11t-11.5 28t11.5 28t28.5 11t28.5 -11zM257.5 700q11.5 -11 11.5 -28
t-11.5 -28t-28.5 -11t-28.5 11t-11.5 28t11.5 28t28.5 11t28.5 -11z" />
    <glyph glyph-name="Alpha" unicode="&#x391;" horiz-adv-x="565" 
d="M137 187l-60 -187h-61l229 685h75l228 -685h-63l-60 187h-288zM282 636l-129 -398h256z" />
    <glyph glyph-name="Beta" unicode="&#x392;" horiz-adv-x="598" 
d="M500 313.5q44 -41.5 44 -123.5q0 -96 -65 -143t-181 -47h-187v685h153q119 0 183.5 -43t64.5 -128q0 -63 -34.5 -102t-91.5 -49q70 -8 114 -49.5zM171 384h138q64 0 103 33.5t39 92.5q0 67 -45.5 96t-135.5 29h-99v-251zM482 190q0 74 -45.5 110t-120.5 36h-145v-286h127
q184 0 184 140z" />
    <glyph glyph-name="Gamma" unicode="&#x393;" horiz-adv-x="508" 
d="M171 632v-632h-60v685h387l-9 -53h-318z" />
    <glyph glyph-name="Delta" unicode="&#x394;" horiz-adv-x="575" 
d="M16 0l234 685h76l232 -685h-542zM480 51l-193 584l-194 -584h387z" />
    <glyph glyph-name="Epsilon" unicode="&#x395;" horiz-adv-x="512" 
d="M171 635v-255h243v-50h-243v-280h295v-50h-355v685h348l-7 -50h-281z" />
    <glyph glyph-name="Zeta" unicode="&#x396;" horiz-adv-x="516" 
d="M104 53h358l-8 -53h-419v50l367 583h-329v52h395v-49z" />
    <glyph glyph-name="Eta" unicode="&#x397;" horiz-adv-x="670" 
d="M171 335v-335h-60v685h60v-299h328v299h60v-685h-60v335h-328z" />
    <glyph glyph-name="Theta" unicode="&#x398;" horiz-adv-x="691" 
d="M492 655.5q63 -40.5 98 -120.5t35 -193q0 -111 -34.5 -190.5t-97.5 -121t-148 -41.5q-83 0 -146 41t-98 120t-35 191q0 111 35 191t98.5 122t145.5 42q84 0 147 -40.5zM187 568.5q-58 -76.5 -58 -227.5q0 -149 58.5 -225t157.5 -76q103 0 160 75.5t57 226.5
q0 152 -57.5 227.5t-159.5 75.5q-100 0 -158 -76.5zM216 327v49h258v-49h-258z" />
    <glyph glyph-name="Iota" unicode="&#x399;" horiz-adv-x="282" 
d="M111 0v685h60v-685h-60z" />
    <glyph glyph-name="Kappa" unicode="&#x39a;" horiz-adv-x="547" 
d="M111 0v685h60v-685h-60zM547 0h-73l-299 367l286 318h69l-284 -315z" />
    <glyph glyph-name="Lambda" unicode="&#x39b;" horiz-adv-x="565" 
d="M485 0l-203 636l-205 -636h-61l229 685h75l228 -685h-63z" />
    <glyph glyph-name="Mu" unicode="&#x39c;" horiz-adv-x="778" 
d="M643 0l-31 328q-19 192 -26 299l-172 -546h-57l-178 546q-3 -59 -23 -297l-30 -330h-57l65 685h83l170 -534l164 534h84l66 -685h-58z" />
    <glyph glyph-name="Nu" unicode="&#x39d;" horiz-adv-x="673" 
d="M483 0l-323 619q8 -125 8 -236v-383h-57v685h77l325 -619q-8 116 -8 203v416h57v-685h-79z" />
    <glyph glyph-name="Xi" unicode="&#x39e;" horiz-adv-x="497" 
d="M50 630v55h387l-7 -55h-380zM109 327v55h276v-55h-276zM50 0v57h397v-57h-397z" />
    <glyph glyph-name="Omicron" unicode="&#x39f;" horiz-adv-x="691" 
d="M492 655.5q63 -40.5 98 -120.5t35 -193q0 -111 -34.5 -190.5t-97.5 -121t-148 -41.5q-83 0 -146 41t-98 120t-35 191q0 111 35 191t98.5 122t145.5 42q84 0 147 -40.5zM187 568.5q-58 -76.5 -58 -227.5q0 -149 58.5 -225t157.5 -76q103 0 160 75.5t57 226.5
q0 152 -57.5 227.5t-159.5 75.5q-100 0 -158 -76.5z" />
    <glyph glyph-name="Pi" unicode="&#x3a0;" horiz-adv-x="665" 
d="M494 0v633h-323v-633h-60v685h443v-685h-60z" />
    <glyph glyph-name="Rho" unicode="&#x3a1;" horiz-adv-x="570" 
d="M459.5 634.5q65.5 -50.5 65.5 -154.5q0 -110 -68.5 -161.5t-187.5 -51.5h-98v-267h-60v685h161q122 0 187.5 -50.5zM412 353q50 37 50 126q0 84 -48.5 120.5t-142.5 36.5h-100v-320h98q93 0 143 37z" />
    <glyph glyph-name="Sigma" unicode="&#x3a3;" horiz-adv-x="494" 
d="M119 634l214 -277v-34l-214 -272h329v-51h-403v44l231 295l-231 302v44h403v-51h-329z" />
    <glyph glyph-name="Tau" unicode="&#x3a4;" horiz-adv-x="495" 
d="M277 632v-632h-59v632h-203v53h470l-7 -53h-201z" />
    <glyph glyph-name="Upsilon" unicode="&#x3a5;" horiz-adv-x="523" 
d="M292 0h-60v267l-219 418h67l184 -365l181 365h64l-217 -417v-268z" />
    <glyph glyph-name="Phi" unicode="&#x3a6;" horiz-adv-x="791" 
d="M667 145q-83 -69 -242 -75v-70h-59v70q-159 5 -242.5 77t-83.5 196q0 128 83.5 197t242.5 74v71h59v-71q159 -5 242 -76.5t83 -193.5q0 -130 -83 -199zM169.5 179.5q67.5 -57.5 198.5 -61.5v450q-135 -8 -200.5 -62t-65.5 -163q0 -106 67.5 -163.5zM623.5 179
q65.5 54 65.5 165q0 105 -67.5 162t-198.5 61v-450q135 8 200.5 62z" />
    <glyph glyph-name="Chi" unicode="&#x3a7;" horiz-adv-x="512" 
d="M436 0l-182 330l-179 -330h-65l209 368l-188 317h68l156 -278l156 278h65l-186 -314l214 -371h-68z" />
    <glyph glyph-name="Psi" unicode="&#x3a8;" horiz-adv-x="670" 
d="M630 427q0 -106 -68 -163t-197 -64v-200h-60v200q-131 7 -198 64t-67 162v259h60v-254q0 -86 51 -131t155 -49v434h58v-434q104 5 155 49t51 131v254h60v-258z" />
    <glyph glyph-name="Omega" unicode="&#x3a9;" horiz-adv-x="691" 
d="M493 655.5q63 -40.5 97.5 -119t34.5 -190.5q0 -117 -34.5 -186t-109.5 -107h122v-53h-199v52q80 29 119 100t39 194q0 149 -57.5 224t-159.5 75q-100 0 -158 -75.5t-58 -224.5q0 -123 39 -192t118 -101v-52h-198v53h119q-73 38 -107 107t-34 185q0 109 35 188t98.5 121
t145.5 42q85 0 148 -40.5z" />
    <glyph glyph-name="Iotadieresis" unicode="&#x3aa;" horiz-adv-x="282" 
d="M111 0v685h60v-685h-60zM74.5 856.5q11.5 -11.5 11.5 -28.5t-11.5 -28t-28.5 -11t-28.5 11t-11.5 28t11.5 28.5t28.5 11.5t28.5 -11.5zM264 856.5q11 -11.5 11 -28.5t-11 -28t-29 -11q-17 0 -28.5 11t-11.5 28t11.5 28.5t28.5 11.5q18 0 29 -11.5z" />
    <glyph glyph-name="Upsilondieresis" unicode="&#x3ab;" horiz-adv-x="523" 
d="M292 0h-60v267l-219 418h67l184 -365l181 365h64l-217 -417v-268zM193.5 856.5q11.5 -11.5 11.5 -28.5t-11.5 -28t-28.5 -11t-28.5 11t-11.5 28t11.5 28.5t28.5 11.5t28.5 -11.5zM383 856.5q11 -11.5 11 -28.5t-11 -28t-29 -11q-17 0 -28.5 11t-11.5 28t11.5 28.5
t28.5 11.5q18 0 29 -11.5z" />
    <glyph glyph-name="alphatonos" unicode="&#x3ac;" horiz-adv-x="591" 
d="M337.5 516.5q33.5 -17.5 56 -59.5t35.5 -116l38 182h56l-59 -261l30 -170q4 -22 14 -33t28 -18l-21 -49q-64 13 -74 79l-16 107q-22 -94 -65.5 -141.5t-111.5 -47.5q-87 0 -135 69t-48 203q0 80 22.5 142t65.5 96.5t102 34.5q49 0 82.5 -17.5zM163 427q-37 -59 -37 -166
q0 -114 33 -169t95 -55q53 0 93.5 51t64.5 180q-16 85 -37 132.5t-48.5 66.5t-67.5 19q-59 0 -96 -59zM302 600l-43 7l34 167l65 -12z" />
    <glyph glyph-name="epsilontonos" unicode="&#x3ad;" horiz-adv-x="460" 
d="M421 487l-31 -37q-27 18 -56.5 27t-68.5 9q-57 0 -88.5 -25t-31.5 -69q0 -42 33.5 -68.5t89.5 -26.5h60l-8 -47h-56q-71 0 -104 -24.5t-33 -82.5q0 -49 36 -77t97 -28q46 0 78 12.5t69 39.5l30 -38q-76 -63 -180 -63q-86 0 -139.5 40.5t-53.5 111.5q0 124 132 136
q-54 10 -82.5 42t-28.5 78q0 64 48 100.5t127 36.5q91 0 161 -47zM279 600l-43 7l34 167l65 -12z" />
    <glyph glyph-name="etatonos" unicode="&#x3ae;" horiz-adv-x="588" 
d="M449.5 492q37.5 -42 37.5 -118v-579l-58 8v563q0 63 -25 92t-74 29q-50 0 -89 -28t-73 -80v-379h-58v355q0 54 -6.5 93t-17.5 76l53 7q16 -39 24 -101q33 49 78 76.5t100 27.5q71 0 108.5 -42zM307 600l-43 7l34 167l65 -12z" />
    <glyph glyph-name="iotatonos" unicode="&#x3af;" horiz-adv-x="263" 
d="M169.5 66.5q10.5 -18.5 36.5 -29.5l-18 -45q-48 13 -67.5 41.5t-19.5 85.5v404h58v-399q0 -39 10.5 -57.5zM152 600l-43 7l34 167l65 -12z" />
    <glyph glyph-name="upsilondieresistonos" unicode="&#x3b0;" horiz-adv-x="564" 
d="M483 260q0 -91 -29.5 -152t-77.5 -90t-106 -29q-75 0 -122 44t-47 126v364h58v-360q0 -63 31 -94t82 -31q63 0 107.5 53.5t44.5 172.5t-26 259h59q26 -150 26 -263zM301 716l-42 7l29 147l63 -12zM210.5 700q11.5 -11 11.5 -28t-11.5 -28t-28.5 -11t-28.5 11t-11.5 28
t11.5 28t28.5 11t28.5 -11zM408.5 700q11.5 -11 11.5 -28t-11.5 -28t-28.5 -11t-28.5 11t-11.5 28t11.5 28t28.5 11t28.5 -11z" />
    <glyph glyph-name="alpha" unicode="&#x3b1;" horiz-adv-x="591" 
d="M337.5 516.5q33.5 -17.5 56 -59.5t35.5 -116l38 182h56l-59 -261l30 -170q4 -22 14 -33t28 -18l-21 -49q-64 13 -74 79l-16 107q-22 -94 -65.5 -141.5t-111.5 -47.5q-87 0 -135 69t-48 203q0 80 22.5 142t65.5 96.5t102 34.5q49 0 82.5 -17.5zM163 427q-37 -59 -37 -166
q0 -114 33 -169t95 -55q53 0 93.5 51t64.5 180q-16 85 -37 132.5t-48.5 66.5t-67.5 19q-59 0 -96 -59z" />
    <glyph glyph-name="beta" unicode="&#x3b2;" horiz-adv-x="589" 
d="M478.5 348q59.5 -49 59.5 -146q0 -64 -28.5 -112.5t-76.5 -74.5t-105 -26q-95 0 -163 65v-251l-59 -9v747q0 95 52.5 148.5t139.5 53.5q50 0 93.5 -20t69.5 -59t26 -94q0 -76 -42 -118t-116 -51q90 -4 149.5 -53zM433.5 82q44.5 44 44.5 118q0 85 -53.5 130t-149.5 45
h-48l7 46h45q60 0 105.5 33.5t46.5 110.5q-1 67 -38.5 99t-94.5 32q-62 0 -97.5 -39t-35.5 -117v-434q34 -37 69.5 -52.5t87.5 -15.5q67 0 111.5 44z" />
    <glyph glyph-name="gamma" unicode="&#x3b3;" horiz-adv-x="462" 
d="M149 363q44 -110 82 -285l156 453l59 -13l-186 -499q-26 -69 -26 -125q0 -41 12 -92l-46 -8q-24 57 -24 107t23 110q-55 207 -100 324t-93 176l55 20q44 -58 88 -168z" />
    <glyph glyph-name="delta" unicode="&#x3b4;" horiz-adv-x="567" 
d="M457.5 396.5q45.5 -57.5 45.5 -157.5q0 -114 -58 -182t-161 -68q-101 0 -160.5 65.5t-59.5 183.5q0 87 42 146.5t117 93.5q-56 26 -80 58t-24 78q0 35 20 64.5t57.5 47t87.5 17.5t89 -12t75 -37l-31 -37q-32 21 -60.5 30t-65.5 9q-54 0 -83.5 -23.5t-29.5 -60.5
q0 -26 11 -44.5t39 -35.5t83 -38q101 -40 146.5 -97.5zM402 89q40 51 40 150q0 60 -16.5 99t-54 67.5t-105.5 55.5q-140 -67 -140 -223q0 -97 41.5 -148.5t116.5 -51.5q78 0 118 51z" />
    <glyph glyph-name="epsilon" unicode="&#x3b5;" horiz-adv-x="460" 
d="M421 487l-31 -37q-27 18 -56.5 27t-68.5 9q-57 0 -88.5 -25t-31.5 -69q0 -42 33.5 -68.5t89.5 -26.5h60l-8 -47h-56q-71 0 -104 -24.5t-33 -82.5q0 -49 36 -77t97 -28q46 0 78 12.5t69 39.5l30 -38q-76 -63 -180 -63q-86 0 -139.5 40.5t-53.5 111.5q0 124 132 136
q-54 10 -82.5 42t-28.5 78q0 64 48 100.5t127 36.5q91 0 161 -47z" />
    <glyph glyph-name="zeta" unicode="&#x3b6;" horiz-adv-x="374" 
d="M179.5 461.5q-72.5 -102.5 -72.5 -207.5q0 -52 12.5 -83t40.5 -51.5t81 -40.5q54 -21 84 -37.5t46 -39t16 -55.5q0 -49 -33 -85t-105 -68l-25 41q49 21 75 45.5t26 61.5q0 22 -9.5 35.5t-34.5 26.5t-77 33q-56 22 -89.5 47.5t-51.5 66t-18 103.5q0 71 37.5 150t105 154
t155.5 136q-34 -7 -134 -7h-167l7 49h342l9 -48q-148 -124 -220.5 -226.5z" />
    <glyph glyph-name="eta" unicode="&#x3b7;" horiz-adv-x="588" 
d="M449.5 492q37.5 -42 37.5 -118v-579l-58 8v563q0 63 -25 92t-74 29q-50 0 -89 -28t-73 -80v-379h-58v355q0 54 -6.5 93t-17.5 76l53 7q16 -39 24 -101q33 49 78 76.5t100 27.5q71 0 108.5 -42z" />
    <glyph glyph-name="theta" unicode="&#x3b8;" horiz-adv-x="562" 
d="M444.5 646q53.5 -97 53.5 -276q0 -185 -54.5 -283t-163.5 -98q-108 0 -162 97t-54 283q0 181 56 277.5t163 96.5q108 0 161.5 -97zM165.5 621q-38.5 -73 -41.5 -228h314q-2 155 -39.5 228t-115.5 73q-79 0 -117.5 -73zM397.5 112q37.5 74 40.5 235h-314q2 -159 40 -234
t116 -75q80 0 117.5 74z" />
    <glyph glyph-name="iota" unicode="&#x3b9;" horiz-adv-x="263" 
d="M169.5 66.5q10.5 -18.5 36.5 -29.5l-18 -45q-48 13 -67.5 41.5t-19.5 85.5v404h58v-399q0 -39 10.5 -57.5z" />
    <glyph glyph-name="kappa" unicode="&#x3ba;" horiz-adv-x="504" 
d="M244 277l177 -186q24 -26 37.5 -37.5t34.5 -19.5l-18 -44q-30 8 -49 21.5t-42 38.5l-210 225l242 259l49 -25zM160.5 455.5q7.5 -40.5 7.5 -111.5v-344h-58v355q0 54 -6.5 93t-17.5 76l54 7q13 -35 20.5 -75.5z" />
    <glyph glyph-name="lambda" unicode="&#x3bb;" horiz-adv-x="470" 
d="M190 703.5q39 -27.5 61.5 -73.5t39.5 -125q33 -154 63 -246t57.5 -142t68.5 -104l-58 -22q-40 58 -66.5 109t-55 141t-56.5 234l-157 -484l-56 14l176 518h26q-12 55 -29 89t-47.5 55.5t-80.5 32.5l9 44q66 -13 105 -40.5z" />
    <glyph glyph-name="mu" unicode="&#x3bc;" horiz-adv-x="585" 
d="M428.5 44.5q-5.5 23.5 -8.5 57.5q-63 -113 -158 -113q-39 0 -68 16t-41 48q11 -59 11 -133v-117l-58 -6v726h58v-373q0 -57 28 -83.5t70 -26.5q93 0 152 117v366h58v-346q0 -100 27 -179l-53 -7q-12 30 -17.5 53.5z" />
    <glyph glyph-name="nu" unicode="&#x3bd;" horiz-adv-x="462" 
d="M228 49l161 482l57 -13l-184 -518h-71q-51 214 -94 333t-91 178l55 20q88 -115 167 -482z" />
    <glyph glyph-name="xi" unicode="&#x3be;" horiz-adv-x="423" 
d="M358 730.5q38 -12.5 73 -37.5l-30 -38q-31 21 -59 31t-65 10q-62 0 -92.5 -31t-30.5 -82q0 -56 34.5 -86.5t94.5 -30.5h60l-8 -49h-60q-75 0 -116.5 -44t-41.5 -112q0 -49 14.5 -78.5t46.5 -51t92 -44.5q58 -22 90 -41t47 -42t15 -57q0 -49 -33 -85t-105 -68l-25 41
q49 21 75 45.5t26 61.5q0 22 -10 37t-35.5 30t-76.5 35q-65 26 -102.5 49.5t-59 63.5t-21.5 104q0 82 46 128.5t112 54.5q-56 13 -87 48t-31 93q0 70 47.5 114t127.5 44q50 0 88 -12.5z" />
    <glyph glyph-name="omicron" unicode="&#x3bf;" horiz-adv-x="571" 
d="M448.5 462.5q58.5 -71.5 58.5 -199.5q0 -127 -59.5 -200.5t-162.5 -73.5q-104 0 -162.5 72.5t-58.5 199.5q0 83 27 145t77 95t118 33q104 0 162.5 -71.5zM168 428q-42 -57 -42 -167q0 -109 41.5 -166t117.5 -57t118.5 57t42.5 168q0 109 -41.5 165.5t-118.5 56.5
q-76 0 -118 -57z" />
    <glyph glyph-name="pi" unicode="&#x3c0;" horiz-adv-x="586" 
d="M460 473v-349q0 -40 11 -58t38 -26l-20 -48q-48 13 -67.5 41.5t-19.5 85.5v354h-214v-473h-58v473h-9q-31 0 -47 -2t-38 -8l-11 47q21 8 40 10.5t50 2.5h428v-50h-83z" />
    <glyph glyph-name="rho" unicode="&#x3c1;" horiz-adv-x="573" 
d="M452.5 464q51.5 -70 51.5 -200q0 -127 -53 -201t-145 -74q-48 0 -86.5 20.5t-63.5 58.5v-265l-58 -8v490q0 117 51.5 183t150.5 66q101 0 152.5 -70zM403.5 95.5q38.5 57.5 38.5 168.5q0 110 -36.5 166t-107.5 56q-142 0 -142 -210v-150q23 -43 58.5 -65.5t80.5 -22.5
q70 0 108.5 57.5z" />
    <glyph glyph-name="sigmafinal" unicode="&#x3c2;" horiz-adv-x="459" 
d="M365 521.5q35 -12.5 68 -40.5l-29 -39q-26 22 -53.5 32t-62.5 10q-73 0 -118 -56t-45 -159q0 -57 15 -91.5t47 -57.5t89 -44q73 -27 104.5 -54t31.5 -75q0 -49 -33 -85t-105 -68l-25 41q49 21 75 45.5t26 61.5q0 22 -9 35.5t-31.5 25t-70.5 29.5q-89 32 -132 86t-43 151
q0 81 27 140.5t77 92t117 32.5q45 0 80 -12.5z" />
    <glyph glyph-name="sigma" unicode="&#x3c3;" horiz-adv-x="577" 
d="M403 484q47 -27 75.5 -84t28.5 -137q0 -127 -59.5 -200.5t-162.5 -73.5q-104 0 -162.5 72.5t-58.5 199.5q0 125 63.5 197t190.5 72q99 0 215 -7v-47zM418.5 402q-27.5 57 -72.5 84q-120 1 -170 -54t-50 -171q0 -109 41.5 -166t117.5 -57t118.5 57t42.5 168
q0 82 -27.5 139z" />
    <glyph glyph-name="tau" unicode="&#x3c4;" horiz-adv-x="450" 
d="M250 473v-349q0 -40 11 -58t38 -26l-20 -48q-48 13 -67.5 41.5t-19.5 85.5v354h-92q-31 0 -47 -2t-38 -8l-11 47q21 8 40 10.5t50 2.5h347v-50h-191z" />
    <glyph glyph-name="upsilon" unicode="&#x3c5;" horiz-adv-x="564" 
d="M483 260q0 -91 -29.5 -152t-77.5 -90t-106 -29q-75 0 -122 44t-47 126v364h58v-360q0 -63 31 -94t82 -31q63 0 107.5 53.5t44.5 172.5t-26 259h59q26 -150 26 -263z" />
    <glyph glyph-name="phi" unicode="&#x3c6;" horiz-adv-x="720" 
d="M588 62.5q-63 -65.5 -204 -72.5v-187l-57 -8v195q-130 7 -190.5 68.5t-60.5 185.5q0 75 15.5 141.5t42.5 137.5h58q-25 -66 -41 -133t-16 -143q0 -109 46.5 -156t145.5 -55v311q0 93 40.5 140t113.5 47q82 0 126 -63t44 -205q0 -138 -63 -203.5zM505 63.5
q45 23.5 65.5 71.5t20.5 130q0 121 -26.5 171.5t-82.5 50.5q-47 0 -72.5 -31t-25.5 -115v-305q76 4 121 27.5z" />
    <glyph glyph-name="chi" unicode="&#x3c7;" horiz-adv-x="443" 
d="M374 -203l-153 339l-157 -338l-58 7l185 380q-60 136 -100 204.5t-88 121.5l57 21q44 -51 79.5 -114t82.5 -183l129 295l61 -7l-160 -339l180 -377z" />
    <glyph glyph-name="psi" unicode="&#x3c8;" horiz-adv-x="745" 
d="M597 61.5q-67 -64.5 -196 -71.5v-187l-57 -8v194q-253 7 -253 212l1 322h58l-1 -319q0 -82 47 -122.5t148 -44.5v486h57v-485q105 5 154.5 59t49.5 170q0 120 -26 256h59q13 -73 19.5 -132t6.5 -126q0 -139 -67 -203.5z" />
    <glyph glyph-name="omega" unicode="&#x3c9;" horiz-adv-x="774" 
d="M698 237q0 -131 -50 -189.5t-126 -58.5q-55 0 -91 30.5t-44 93.5q-21 -124 -139 -124q-78 0 -125 61t-47 188q0 84 16 151.5t42 133.5h58q-29 -75 -43 -143t-14 -138q0 -204 119 -204q48 0 76 32t28 109v174l57 8v-182q0 -75 27.5 -108t73.5 -33q123 0 123 198
q0 144 -57 287h59q57 -139 57 -286z" />
    <glyph glyph-name="iotadieresis" unicode="&#x3ca;" horiz-adv-x="263" 
d="M169.5 66.5q10.5 -18.5 36.5 -29.5l-18 -45q-48 13 -67.5 41.5t-19.5 85.5v404h58v-399q0 -39 10.5 -57.5zM63.5 730.5q11.5 -11.5 11.5 -28.5t-11.5 -28t-28.5 -11t-28.5 11t-11.5 28t11.5 28.5t28.5 11.5t28.5 -11.5zM252.5 730.5q11.5 -11.5 11.5 -28.5t-11.5 -28
t-28.5 -11t-28.5 11t-11.5 28t11.5 28.5t28.5 11.5t28.5 -11.5z" />
    <glyph glyph-name="upsilondieresis" unicode="&#x3cb;" horiz-adv-x="564" 
d="M483 260q0 -91 -29.5 -152t-77.5 -90t-106 -29q-75 0 -122 44t-47 126v364h58v-360q0 -63 31 -94t82 -31q63 0 107.5 53.5t44.5 172.5t-26 259h59q26 -150 26 -263zM215.5 730.5q11.5 -11.5 11.5 -28.5t-11.5 -28t-28.5 -11t-28.5 11t-11.5 28t11.5 28.5t28.5 11.5
t28.5 -11.5zM404.5 730.5q11.5 -11.5 11.5 -28.5t-11.5 -28t-28.5 -11t-28.5 11t-11.5 28t11.5 28.5t28.5 11.5t28.5 -11.5z" />
    <glyph glyph-name="omicrontonos" unicode="&#x3cc;" horiz-adv-x="571" 
d="M448.5 462.5q58.5 -71.5 58.5 -199.5q0 -127 -59.5 -200.5t-162.5 -73.5q-104 0 -162.5 72.5t-58.5 199.5q0 83 27 145t77 95t118 33q104 0 162.5 -71.5zM168 428q-42 -57 -42 -167q0 -109 41.5 -166t117.5 -57t118.5 57t42.5 168q0 109 -41.5 165.5t-118.5 56.5
q-76 0 -118 -57zM308 600l-43 7l34 167l65 -12z" />
    <glyph glyph-name="upsilontonos" unicode="&#x3cd;" horiz-adv-x="564" 
d="M483 260q0 -91 -29.5 -152t-77.5 -90t-106 -29q-75 0 -122 44t-47 126v364h58v-360q0 -63 31 -94t82 -31q63 0 107.5 53.5t44.5 172.5t-26 259h59q26 -150 26 -263zM304 600l-43 7l34 167l65 -12z" />
    <glyph glyph-name="omegatonos" unicode="&#x3ce;" horiz-adv-x="774" 
d="M698 237q0 -131 -50 -189.5t-126 -58.5q-55 0 -91 30.5t-44 93.5q-21 -124 -139 -124q-78 0 -125 61t-47 188q0 84 16 151.5t42 133.5h58q-29 -75 -43 -143t-14 -138q0 -204 119 -204q48 0 76 32t28 109v174l57 8v-182q0 -75 27.5 -108t73.5 -33q123 0 123 198
q0 144 -57 287h59q57 -139 57 -286zM410 600l-43 7l34 167l65 -12z" />
    <glyph glyph-name="uni0400" unicode="&#x400;" horiz-adv-x="512" 
d="M171 635v-255h243v-50h-243v-280h295v-50h-355v685h348l-7 -50h-281zM372 758l-198 78l26 52l188 -96z" />
    <glyph glyph-name="uni0401" unicode="&#x401;" horiz-adv-x="512" 
d="M171 635v-255h243v-50h-243v-280h295v-50h-355v685h348l-7 -50h-281zM222.5 856.5q11.5 -11.5 11.5 -28.5t-11.5 -28t-28.5 -11t-28.5 11t-11.5 28t11.5 28.5t28.5 11.5t28.5 -11.5zM412 856.5q11 -11.5 11 -28.5t-11 -28t-29 -11q-17 0 -28.5 11t-11.5 28t11.5 28.5
t28.5 11.5q18 0 29 -11.5z" />
    <glyph glyph-name="uni0402" unicode="&#x402;" horiz-adv-x="701" 
d="M605 384.5q50 -52.5 50 -145.5v-147q0 -61 -15.5 -99.5t-49 -63.5t-91.5 -48l-17 44q46 20 70 41.5t33.5 51t9.5 77.5v143q0 70 -35 108t-109 38q-55 0 -96.5 -21.5t-77.5 -66.5v-296h-59v632h-203v53h470l-7 -53h-201v-276q36 40 80.5 60.5t103.5 20.5q94 0 144 -52.5z
" />
    <glyph glyph-name="uni0403" unicode="&#x403;" horiz-adv-x="508" 
d="M171 632v-632h-60v685h387l-9 -53h-318zM236 758l-16 34l187 96l27 -52z" />
    <glyph glyph-name="uni0404" unicode="&#x404;" horiz-adv-x="558" 
d="M342 -11q-80 0 -142.5 41t-98 121t-35.5 193t37 192.5t99.5 119.5t140.5 40q57 0 96.5 -15.5t79.5 -47.5l-32 -40q-35 28 -67 40t-73 12q-91 0 -151 -65t-66 -199h273v-51h-274q1 -96 29.5 -160.5t76.5 -96t109 -31.5q48 0 81.5 14.5t69.5 43.5l32 -40q-73 -71 -185 -71z
" />
    <glyph glyph-name="uni0405" unicode="&#x405;" horiz-adv-x="539" 
d="M375.5 677.5q45.5 -18.5 88.5 -57.5l-36 -39q-38 34 -75 49t-84 15q-64 0 -103 -31.5t-39 -84.5q0 -36 14.5 -59.5t48.5 -42t97 -37.5q68 -21 110 -45t65 -62t23 -96t-28 -103t-79.5 -70t-119.5 -25q-128 0 -219 86l36 39q39 -36 82 -55t100 -19q74 0 120.5 39t46.5 106
q0 42 -15.5 69t-50 46.5t-97.5 39.5q-105 32 -150 74t-45 114q0 48 25.5 86.5t71 60t104.5 21.5q63 0 108.5 -18.5z" />
    <glyph glyph-name="uni0406" unicode="&#x406;" horiz-adv-x="282" 
d="M111 0v685h60v-685h-60z" />
    <glyph glyph-name="uni0407" unicode="&#x407;" horiz-adv-x="282" 
d="M111 0v685h60v-685h-60zM74.5 856.5q11.5 -11.5 11.5 -28.5t-11.5 -28t-28.5 -11t-28.5 11t-11.5 28t11.5 28.5t28.5 11.5t28.5 -11.5zM264 856.5q11 -11.5 11 -28.5t-11 -28t-29 -11q-17 0 -28.5 11t-11.5 28t11.5 28.5t28.5 11.5q18 0 29 -11.5z" />
    <glyph glyph-name="uni0408" unicode="&#x408;" horiz-adv-x="291" 
d="M169.5 -7.5q-15.5 -38.5 -48.5 -63.5t-92 -48l-16 44q46 20 70 41.5t33 51t9 77.5v590h60v-593q0 -61 -15.5 -99.5z" />
    <glyph glyph-name="uni0409" unicode="&#x409;" horiz-adv-x="890" 
d="M789 367.5q65 -50.5 65 -152.5q0 -110 -66.5 -162.5t-180.5 -52.5h-158v633h-223l-40 -334q-14 -122 -28 -178.5t-38.5 -84.5t-75.5 -45l-15 48q34 13 50 35.5t24.5 66.5t22.5 156l48 388h335v-267h98q117 0 182 -50.5zM745 88.5q46 38.5 46 126.5q0 81 -47 117.5
t-134 36.5h-101v-319h106q84 0 130 38.5z" />
    <glyph glyph-name="uni040A" unicode="&#x40a;" horiz-adv-x="932" 
d="M834.5 349q62.5 -49 62.5 -144q0 -103 -65.5 -154t-172.5 -51h-167v349h-321v-349h-60v685h60v-287h321v287h60v-287h111q109 0 171.5 -49zM788.5 87q44.5 37 44.5 118q0 74 -44.5 109t-123.5 35h-113v-299h115q77 0 121.5 37z" />
    <glyph glyph-name="uni040B" unicode="&#x40b;" horiz-adv-x="701" 
d="M605 385q50 -52 50 -145v-240h-60v238q0 70 -35 108t-109 38q-55 0 -96.5 -21.5t-76.5 -66.5v-296h-60v632h-203v53h470l-7 -53h-200v-275q36 39 80 59.5t103 20.5q94 0 144 -52z" />
    <glyph glyph-name="uni040C" unicode="&#x40c;" horiz-adv-x="561" 
d="M548 0h-69l-200 336h-108v-336h-60v685h60v-299h109l188 299h63l-201 -322zM214 758l-16 34l187 96l27 -52z" />
    <glyph glyph-name="uni040D" unicode="&#x40d;" horiz-adv-x="673" 
d="M502 0v365q0 155 8 253l-324 -618h-75v685h60v-365q0 -136 -8 -254l325 619h74v-685h-60zM420 758l-198 78l26 52l188 -96z" />
    <glyph glyph-name="uni040E" unicode="&#x40e;" horiz-adv-x="519" 
d="M258.5 79.5q-24.5 -37.5 -58.5 -57.5t-92 -33l-11 45q46 12 72 27t46 44.5t42 86.5h-21l-228 493h64l204 -454l178 454h61l-202 -495q-30 -73 -54.5 -110.5zM176.5 804q-35.5 25 -42.5 68l40 9q10 -28 32 -41t58 -13q74 0 91 54l40 -9q-7 -43 -43 -68t-88 -25t-87.5 25z
" />
    <glyph glyph-name="uni040F" unicode="&#x40f;" horiz-adv-x="659" 
d="M356 0v-145h-46l-12 145h-187v685h60v-634h317v634h60v-685h-192z" />
    <glyph glyph-name="uni0410" unicode="&#x410;" horiz-adv-x="565" 
d="M137 187l-60 -187h-61l229 685h75l228 -685h-63l-60 187h-288zM282 636l-129 -398h256z" />
    <glyph glyph-name="uni0411" unicode="&#x411;" horiz-adv-x="569" 
d="M461 367q64 -51 64 -152q0 -109 -66 -162t-180 -53h-168v685h346l-8 -51h-278v-216h110q116 0 180 -51zM416 88.5q46 38.5 46 126.5q0 154 -179 154h-112v-319h116q83 0 129 38.5z" />
    <glyph glyph-name="uni0412" unicode="&#x412;" horiz-adv-x="598" 
d="M500 313.5q44 -41.5 44 -123.5q0 -96 -65 -143t-181 -47h-187v685h153q119 0 183.5 -43t64.5 -128q0 -63 -34.5 -102t-91.5 -49q70 -8 114 -49.5zM171 384h138q64 0 103 33.5t39 92.5q0 67 -45.5 96t-135.5 29h-99v-251zM482 190q0 74 -45.5 110t-120.5 36h-145v-286h127
q184 0 184 140z" />
    <glyph glyph-name="uni0413" unicode="&#x413;" horiz-adv-x="508" 
d="M171 632v-632h-60v685h387l-9 -53h-318z" />
    <glyph glyph-name="uni0414" unicode="&#x414;" horiz-adv-x="601" 
d="M540 -145h-46l-12 145h-431l-13 -145h-46v196h45q25 25 40.5 61t29.5 108.5t32 210.5l31 254h320v-634h50v-196zM224 634l-25 -204q-16 -133 -30.5 -205t-32 -110.5t-46.5 -63.5h340v583h-206z" />
    <glyph glyph-name="uni0415" unicode="&#x415;" horiz-adv-x="512" 
d="M171 635v-255h243v-50h-243v-280h295v-50h-355v685h348l-7 -50h-281z" />
    <glyph glyph-name="uni0416" unicode="&#x416;" horiz-adv-x="773" 
d="M763 0h-68l-186 336h-94v-336h-57v336h-95l-186 -336h-67l205 363l-188 322h66l171 -299h94v299h57v-299h94l174 299h63l-188 -322z" />
    <glyph glyph-name="uni0417" unicode="&#x417;" horiz-adv-x="520" 
d="M393.5 648.5q51.5 -47.5 51.5 -123.5q0 -64 -35.5 -103t-96.5 -52q67 -7 110.5 -51t43.5 -122q0 -63 -30 -110t-83 -72.5t-120 -25.5q-126 0 -213 93l37 34q73 -75 174 -75q78 0 124.5 41.5t46.5 114.5q0 70 -44 107.5t-127 36.5h-62l8 51h52q70 0 111.5 34t41.5 96
q0 55 -36.5 89t-102.5 34q-90 0 -170 -70l-34 37q47 42 97.5 63t110.5 21q94 0 145.5 -47.5z" />
    <glyph glyph-name="uni0418" unicode="&#x418;" horiz-adv-x="673" 
d="M502 0v365q0 155 8 253l-324 -618h-75v685h60v-365q0 -136 -8 -254l325 619h74v-685h-60z" />
    <glyph glyph-name="uni0419" unicode="&#x419;" horiz-adv-x="673" 
d="M502 0v365q0 155 8 253l-324 -618h-75v685h60v-365q0 -136 -8 -254l325 619h74v-685h-60zM248.5 804q-35.5 25 -42.5 68l40 9q10 -28 32 -41t58 -13q74 0 91 54l40 -9q-7 -43 -43 -68t-88 -25t-87.5 25z" />
    <glyph glyph-name="uni041A" unicode="&#x41a;" horiz-adv-x="561" 
d="M548 0h-69l-200 336h-108v-336h-60v685h60v-299h109l188 299h63l-201 -322z" />
    <glyph glyph-name="uni041B" unicode="&#x41b;" horiz-adv-x="647" 
d="M536 0h-60v633h-250l-40 -334q-14 -122 -28 -178.5t-38.5 -84.5t-75.5 -45l-15 48q34 13 50 35.5t24.5 66.5t22.5 156l48 388h362v-685z" />
    <glyph glyph-name="uni041C" unicode="&#x41c;" horiz-adv-x="778" 
d="M643 0l-31 328q-19 192 -26 299l-172 -546h-57l-178 546q-3 -59 -23 -297l-30 -330h-57l65 685h83l170 -534l164 534h84l66 -685h-58z" />
    <glyph glyph-name="uni041D" unicode="&#x41d;" horiz-adv-x="670" 
d="M171 335v-335h-60v685h60v-299h328v299h60v-685h-60v335h-328z" />
    <glyph glyph-name="uni041E" unicode="&#x41e;" horiz-adv-x="691" 
d="M492 655.5q63 -40.5 98 -120.5t35 -193q0 -111 -34.5 -190.5t-97.5 -121t-148 -41.5q-83 0 -146 41t-98 120t-35 191q0 111 35 191t98.5 122t145.5 42q84 0 147 -40.5zM187 568.5q-58 -76.5 -58 -227.5q0 -149 58.5 -225t157.5 -76q103 0 160 75.5t57 226.5
q0 152 -57.5 227.5t-159.5 75.5q-100 0 -158 -76.5z" />
    <glyph glyph-name="uni041F" unicode="&#x41f;" horiz-adv-x="665" 
d="M494 0v633h-323v-633h-60v685h443v-685h-60z" />
    <glyph glyph-name="uni0420" unicode="&#x420;" horiz-adv-x="570" 
d="M459.5 634.5q65.5 -50.5 65.5 -154.5q0 -110 -68.5 -161.5t-187.5 -51.5h-98v-267h-60v685h161q122 0 187.5 -50.5zM412 353q50 37 50 126q0 84 -48.5 120.5t-142.5 36.5h-100v-320h98q93 0 143 37z" />
    <glyph glyph-name="uni0421" unicode="&#x421;" horiz-adv-x="550" 
d="M439.5 680.5q39.5 -15.5 79.5 -47.5l-32 -40q-35 28 -67 40t-73 12q-97 0 -157.5 -74t-60.5 -228q0 -100 28 -168t76.5 -100.5t110.5 -32.5q48 0 81.5 14.5t69.5 43.5l32 -40q-73 -71 -185 -71q-80 0 -142.5 41t-98 120.5t-35.5 192.5t37 192.5t99.5 120t140.5 40.5
q57 0 96.5 -15.5z" />
    <glyph glyph-name="uni0422" unicode="&#x422;" horiz-adv-x="495" 
d="M277 632v-632h-59v632h-203v53h470l-7 -53h-201z" />
    <glyph glyph-name="uni0423" unicode="&#x423;" horiz-adv-x="519" 
d="M258.5 79.5q-24.5 -37.5 -58.5 -57.5t-92 -33l-11 45q46 12 72 27t46 44.5t42 86.5h-21l-228 493h64l204 -454l178 454h61l-202 -495q-30 -73 -54.5 -110.5z" />
    <glyph glyph-name="uni0424" unicode="&#x424;" horiz-adv-x="801" 
d="M672 127q-83 -75 -242 -81v-71h-59v71q-161 5 -243.5 82t-82.5 219q0 148 83.5 223t242.5 80v69h59v-68q161 -5 243 -82t82 -220q0 -147 -83 -222zM173.5 160q66.5 -62 199.5 -66v510q-135 -8 -200.5 -68t-65.5 -189q0 -125 66.5 -187zM628.5 161q65.5 60 65.5 188
q0 126 -66.5 188t-199.5 66v-510q135 8 200.5 68z" />
    <glyph glyph-name="uni0425" unicode="&#x425;" horiz-adv-x="512" 
d="M436 0l-182 330l-179 -330h-65l209 368l-188 317h68l156 -278l156 278h65l-186 -314l214 -371h-68z" />
    <glyph glyph-name="uni0426" unicode="&#x426;" horiz-adv-x="685" 
d="M619 -145h-46l-13 145h-449v685h60v-634h317v634h60v-634h71v-196z" />
    <glyph glyph-name="uni0427" unicode="&#x427;" horiz-adv-x="594" 
d="M483 0h-60v295q-41 -36 -84.5 -54t-98.5 -18q-88 0 -141.5 52.5t-53.5 143.5v266h60v-262q0 -72 39 -109.5t109 -37.5q53 0 97 20t73 54v335h60v-685z" />
    <glyph glyph-name="uni0428" unicode="&#x428;" horiz-adv-x="911" 
d="M111 0v685h59v-634h257v634h57v-634h257v634h59v-685h-689z" />
    <glyph glyph-name="uni0429" unicode="&#x429;" horiz-adv-x="911" 
d="M871 -145h-46l-13 145h-701v685h59v-634h257v634h57v-634h257v634h59v-634h71v-196z" />
    <glyph glyph-name="uni042A" unicode="&#x42a;" horiz-adv-x="615" 
d="M514 371.5q64 -51.5 64 -154.5q0 -111 -66 -164t-180 -53h-168v633h-164v52h224v-262h109q117 0 181 -51.5zM469 89q46 39 46 128q0 156 -179 156h-112v-323h116q83 0 129 39z" />
    <glyph glyph-name="uni042B" unicode="&#x42b;" horiz-adv-x="797" 
d="M450.5 371.5q64.5 -51.5 64.5 -153.5q0 -111 -66 -164.5t-180 -53.5h-158v685h60v-262h98q117 0 181.5 -51.5zM686 0h-60v685h60v-685zM406 89q46 39 46 128q0 82 -46.5 119.5t-134.5 37.5h-100v-324h106q83 0 129 39z" />
    <glyph glyph-name="uni042C" unicode="&#x42c;" horiz-adv-x="561" 
d="M461 371.5q64 -51.5 64 -153.5q0 -111 -66 -164.5t-180 -53.5h-168v685h60v-262h110q116 0 180 -51.5zM416 89q46 39 46 128q0 157 -179 157h-112v-324h116q83 0 129 39z" />
    <glyph glyph-name="uni042D" unicode="&#x42d;" horiz-adv-x="535" 
d="M403 609.5q66 -86.5 66 -266.5q0 -172 -64.5 -263t-185.5 -91q-60 0 -104.5 19.5t-83.5 52.5l32 40q36 -30 70.5 -44.5t83.5 -14.5q92 0 140.5 71.5t49.5 216.5h-281v51h280q-6 136 -54.5 200t-129.5 64q-47 0 -82 -12.5t-78 -42.5l-32 38q43 34 89.5 51t104.5 17
q113 0 179 -86.5z" />
    <glyph glyph-name="uni042E" unicode="&#x42e;" horiz-adv-x="878" 
d="M740 604.5q72 -91.5 72 -262.5q0 -111 -32.5 -190.5t-93 -121t-143.5 -41.5q-122 0 -194 88.5t-76 253.5h-102v-331h-60v685h60v-303h103q10 148 82 231t187 83q125 0 197 -91.5zM695 115.5q54 75.5 54 226.5q0 152 -54 227.5t-152 75.5q-97 0 -152 -76.5t-55 -226.5
q0 -151 55.5 -226.5t151.5 -75.5q98 0 152 75.5z" />
    <glyph glyph-name="uni042F" unicode="&#x42f;" horiz-adv-x="590" 
d="M479 0h-60v285h-169l-144 -285h-70l154 295q-139 45 -139 186q0 98 64 151t193 53h171v-685zM419 636h-108q-102 0 -149.5 -38.5t-47.5 -116.5q0 -71 42.5 -109t115.5 -38h147v302z" />
    <glyph glyph-name="uni0430" unicode="&#x430;" horiz-adv-x="536" 
d="M441.5 57q10.5 -18 33.5 -27l-13 -41q-36 8 -55.5 28t-25.5 59q-57 -87 -163 -87q-75 0 -118.5 42.5t-43.5 113.5q0 82 57.5 126t159.5 44h100v50q0 63 -28 91.5t-93 28.5q-60 0 -142 -30l-15 44q88 35 165 35q171 0 171 -166v-252q0 -41 10.5 -59zM373 130v142h-91
q-80 0 -122 -31t-42 -93q0 -54 29 -83t81 -29q96 0 145 94z" />
    <glyph glyph-name="uni0431" unicode="&#x431;" horiz-adv-x="565" 
d="M450 427.5q51 -63.5 51 -175.5q0 -128 -58 -195.5t-158 -67.5q-102 0 -161.5 74.5t-59.5 223.5q0 115 15.5 187t57 118.5t118.5 74.5q58 21 93.5 37t68.5 38l26 -43q-57 -39 -161 -75q-52 -19 -83 -44t-49.5 -72.5t-25.5 -129.5q28 50 75 81.5t110 31.5q90 0 141 -63.5z
M439 248q0 99 -35.5 147t-102.5 48q-57 0 -102.5 -32.5t-72.5 -90.5v-50q-1 -112 40.5 -172t119.5 -60q153 0 153 210z" />
    <glyph glyph-name="uni0432" unicode="&#x432;" horiz-adv-x="550" 
d="M486 154q0 -78 -58 -116t-155 -38h-167v517q83 17 160 17q90 0 140.5 -37t50.5 -99q0 -88 -101 -114q130 -14 130 -130zM164 478v-176h122q53 0 82.5 23t29.5 69q0 93 -131 93q-55 0 -103 -9zM425 154q0 55 -34 79t-99 24h-128v-209h103q158 0 158 106z" />
    <glyph glyph-name="uni0433" unicode="&#x433;" horiz-adv-x="423" 
d="M106 523h309l-7 -50h-244v-473h-58v523z" />
    <glyph glyph-name="uni0434" unicode="&#x434;" horiz-adv-x="551" 
d="M495 -145h-46l-13 145h-372l-12 -145h-46v194h33q26 19 41.5 41.5t27.5 76t19 155.5l14 201h304v-474h50v-194zM195 475l-11 -146q-6 -99 -17 -153t-27.5 -81t-45.5 -46h9h283v426h-191z" />
    <glyph glyph-name="uni0435" unicode="&#x435;" horiz-adv-x="538" 
d="M475 239h-349q5 -102 48.5 -151.5t114.5 -49.5q41 0 72.5 12.5t68.5 39.5l27 -37q-39 -32 -80 -48t-91 -16q-104 0 -163 71t-59 197q0 83 25.5 145.5t73 97t110.5 34.5q100 0 152 -67.5t52 -185.5q0 -22 -2 -42zM420 299q0 88 -36.5 137.5t-108.5 49.5q-64 0 -104.5 -50
t-45.5 -152h295v15z" />
    <glyph glyph-name="uni0436" unicode="&#x436;" horiz-adv-x="694" 
d="M666 0h-64l-139 253h-89v-253h-55v253h-88l-141 -253h-62l156 279l-133 244h60l120 -224h88v224h55v-224h89l121 224h59l-133 -244z" />
    <glyph glyph-name="uni0437" unicode="&#x437;" horiz-adv-x="482" 
d="M342.5 497.5q48.5 -36.5 48.5 -99.5q0 -49 -27.5 -78.5t-81.5 -40.5q67 -7 101.5 -37.5t34.5 -90.5q0 -78 -55.5 -120t-144.5 -42q-62 0 -109 18t-86 50l32 36q35 -27 72.5 -41t88.5 -14q64 0 102.5 27t38.5 87q0 53 -40 76t-114 23h-62l4 47h50q64 0 100 25t36 72
q0 44 -31 67.5t-85 23.5q-45 0 -77 -10.5t-68 -33.5l-29 36q40 28 83 42t97 14q73 0 121.5 -36.5z" />
    <glyph glyph-name="uni0438" unicode="&#x438;" horiz-adv-x="592" 
d="M429 0v324q0 63 6 132l-260 -456h-69v523h58v-307q0 -51 -6 -147l259 454h69v-523h-57z" />
    <glyph glyph-name="uni0439" unicode="&#x439;" horiz-adv-x="592" 
d="M429 0v324q0 63 6 132l-260 -456h-69v523h58v-307q0 -51 -6 -147l259 454h69v-523h-57zM207.5 678q-35.5 25 -42.5 68l40 8q19 -54 90 -54q72 0 91 54l40 -8q-7 -43 -43 -68t-88 -25t-87.5 25z" />
    <glyph glyph-name="uni043A" unicode="&#x43a;" horiz-adv-x="499" 
d="M480 0h-68l-170 255h-78v-255h-58v523h58v-222h79l148 222h64l-164 -242z" />
    <glyph glyph-name="uni043B" unicode="&#x43b;" horiz-adv-x="568" 
d="M462 0h-58v476h-202l-16 -196q-9 -115 -19 -167t-33 -79t-73 -43l-16 47q33 12 47.5 32.5t21.5 64.5t15 151l20 237h313v-523z" />
    <glyph glyph-name="uni043C" unicode="&#x43c;" horiz-adv-x="659" 
d="M534 0l-27 305q-6 74 -8 158l-146 -398h-55l-142 398q-2 -84 -7 -158l-25 -305h-56l46 523h74l138 -399l143 399h75l47 -523h-57z" />
    <glyph glyph-name="uni043D" unicode="&#x43d;" horiz-adv-x="588" 
d="M164 246v-246h-58v523h58v-228h260v228h58v-523h-58v246h-260z" />
    <glyph glyph-name="uni043E" unicode="&#x43e;" horiz-adv-x="571" 
d="M448.5 462.5q58.5 -71.5 58.5 -199.5q0 -127 -59.5 -200.5t-162.5 -73.5q-104 0 -162.5 72.5t-58.5 199.5q0 83 27 145t77 95t118 33q104 0 162.5 -71.5zM168 428q-42 -57 -42 -167q0 -109 41.5 -166t117.5 -57t118.5 57t42.5 168q0 109 -41.5 165.5t-118.5 56.5
q-76 0 -118 -57z" />
    <glyph glyph-name="uni043F" unicode="&#x43f;" horiz-adv-x="585" 
d="M164 474v-474h-58v523h373v-523h-58v474h-257z" />
    <glyph glyph-name="uni0440" unicode="&#x440;" horiz-adv-x="581" 
d="M464.5 463.5q47.5 -70.5 47.5 -199.5q0 -126 -51.5 -200.5t-147.5 -74.5q-47 0 -85 19.5t-64 52.5v-258l-58 -8v728h50l5 -76q29 41 70 64t91 23q95 0 142.5 -70.5zM412 95q38 57 38 169q0 222 -139 222q-47 0 -81.5 -24t-65.5 -66v-278q25 -38 60 -59t78 -21
q72 0 110 57z" />
    <glyph glyph-name="uni0441" unicode="&#x441;" horiz-adv-x="469" 
d="M365 521.5q35 -12.5 68 -40.5l-29 -39q-26 22 -53.5 32t-62.5 10q-74 0 -118 -57.5t-44 -167.5q0 -109 43.5 -164t117.5 -55q35 0 63.5 11t56.5 34l29 -40q-66 -56 -150 -56q-67 0 -117 32t-77.5 92.5t-27.5 144.5q0 83 27.5 145.5t77.5 96.5t116 34q45 0 80 -12.5z" />
    <glyph glyph-name="uni0442" unicode="&#x442;" horiz-adv-x="433" 
d="M246 473v-473h-58v473h-180v50h419l-7 -50h-174z" />
    <glyph glyph-name="uni0443" unicode="&#x443;" horiz-adv-x="468" 
d="M227 -102q-25 -39 -65 -64.5t-103 -37.5l-6 45q52 13 81.5 32t47 47.5t35.5 79.5h-20l-182 523h63l158 -480l155 480h61l-179 -525q-21 -61 -46 -100z" />
    <glyph glyph-name="uni0444" unicode="&#x444;" horiz-adv-x="798" 
d="M690 464q39 -70 39 -200q0 -127 -44 -201t-126 -74q-41 0 -73 18.5t-59 54.5v-259l-56 -8v266q-51 -72 -134 -72q-80 0 -124 74.5t-44 200.5q0 128 42 199t129 71q81 0 131 -72v281l56 -7v-273q53 71 134 71q90 0 129 -70zM371 116v291q-51 79 -122 79q-56 0 -87 -56.5
t-31 -165.5q0 -110 30.5 -168.5t87.5 -58.5q71 0 122 79zM637 95.5q30 58.5 30 168.5q0 111 -28 166.5t-86 55.5q-76 0 -126 -80v-290q27 -39 57 -59t67 -20q56 0 86 58.5z" />
    <glyph glyph-name="uni0445" unicode="&#x445;" horiz-adv-x="459" 
d="M378 0l-151 243l-150 -243h-67l184 278l-160 245h68l128 -209l129 209h66l-161 -243l184 -280h-70z" />
    <glyph glyph-name="uni0446" unicode="&#x446;" horiz-adv-x="598" 
d="M542 -145h-46l-12 145h-378v523h58v-474h251v474h58v-474h69v-194z" />
    <glyph glyph-name="uni0447" unicode="&#x447;" horiz-adv-x="540" 
d="M435 0h-58v241q-30 -30 -73 -48.5t-93 -18.5q-69 0 -110 37.5t-41 107.5v204h58v-197q0 -105 107 -105q44 0 85.5 20t66.5 52v230h58v-523z" />
    <glyph glyph-name="uni0448" unicode="&#x448;" horiz-adv-x="796" 
d="M106 0v523h57v-474h207v474h56v-474h207v474h57v-523h-584z" />
    <glyph glyph-name="uni0449" unicode="&#x449;" horiz-adv-x="796" 
d="M759 -145h-46l-13 145h-594v523h57v-474h207v474h56v-474h207v474h57v-474h69v-194z" />
    <glyph glyph-name="uni044A" unicode="&#x44a;" horiz-adv-x="549" 
d="M512 178q0 -89 -55 -133.5t-142 -44.5h-162v476h-150v47h208v0v-176h93q208 0 208 -169zM414 78.5q37 30.5 37 99.5q0 61 -34 91.5t-113 30.5h-93v-252h98q68 0 105 30.5z" />
    <glyph glyph-name="uni044B" unicode="&#x44b;" horiz-adv-x="714" 
d="M455 177q0 -88 -55 -132.5t-143 -44.5h-151v523h58v-176h82q209 0 209 -170zM608 0h-58v523h58v-523zM356.5 78.5q36.5 30.5 36.5 98.5q0 61 -33.5 92t-112.5 31h-83v-252h88q68 0 104.5 30.5z" />
    <glyph glyph-name="uni044C" unicode="&#x44c;" horiz-adv-x="502" 
d="M465 177q0 -88 -55 -132.5t-143 -44.5h-161v523h58v-176h92q209 0 209 -170zM366.5 78.5q36.5 30.5 36.5 98.5q0 61 -33.5 92t-112.5 31h-93v-252h98q68 0 104.5 30.5z" />
    <glyph glyph-name="uni044D" unicode="&#x44d;" horiz-adv-x="475" 
d="M357 465q54 -69 54 -201q0 -130 -54 -202.5t-155 -72.5q-51 0 -90.5 15t-73.5 43l29 38q31 -24 61 -35.5t71 -11.5q71 0 110 52t42 157h-234v46h233q-5 99 -42 146t-105 47q-38 0 -69 -11t-64 -33l-27 37q35 27 73.5 41t87.5 14q99 0 153 -69z" />
    <glyph glyph-name="uni044E" unicode="&#x44e;" horiz-adv-x="764" 
d="M642.5 461.5q56.5 -72.5 56.5 -198.5q0 -81 -25 -143t-73 -96.5t-114 -34.5q-95 0 -150 69.5t-59 187.5h-114v-246h-58v523h58v-229h115q8 110 63.5 175t145.5 65q98 0 154.5 -72.5zM599.5 96q38.5 58 38.5 167q0 106 -39.5 164t-110.5 58q-72 0 -111 -56.5t-39 -167.5
q0 -107 39 -165t110 -58q74 0 112.5 58z" />
    <glyph glyph-name="uni044F" unicode="&#x44f;" horiz-adv-x="541" 
d="M435 0h-58v216h-139l-122 -216h-65l130 228q-53 17 -79.5 53t-26.5 88q0 75 51 114.5t144 39.5h165v-523zM377 476h-108q-64 1 -98.5 -25.5t-34.5 -80.5q0 -108 125 -108h116v214z" />
    <glyph glyph-name="uni0450" unicode="&#x450;" horiz-adv-x="538" 
d="M475 239h-349q5 -102 48.5 -151.5t114.5 -49.5q41 0 72.5 12.5t68.5 39.5l27 -37q-39 -32 -80 -48t-91 -16q-104 0 -163 71t-59 197q0 83 25.5 145.5t73 97t110.5 34.5q100 0 152 -67.5t52 -185.5q0 -22 -2 -42zM420 299q0 88 -36.5 137.5t-108.5 49.5q-64 0 -104.5 -50
t-45.5 -152h295v15zM372 645l-196 85l26 52l188 -103z" />
    <glyph glyph-name="uni0451" unicode="&#x451;" horiz-adv-x="538" 
d="M475 239h-349q5 -102 48.5 -151.5t114.5 -49.5q41 0 72.5 12.5t68.5 39.5l27 -37q-39 -32 -80 -48t-91 -16q-104 0 -163 71t-59 197q0 83 25.5 145.5t73 97t110.5 34.5q100 0 152 -67.5t52 -185.5q0 -22 -2 -42zM420 299q0 88 -36.5 137.5t-108.5 49.5q-64 0 -104.5 -50
t-45.5 -152h295v15zM209.5 730.5q11.5 -11.5 11.5 -28.5t-11.5 -28t-28.5 -11t-28.5 11t-11.5 28t11.5 28.5t28.5 11.5t28.5 -11.5zM398.5 730.5q11.5 -11.5 11.5 -28.5t-11.5 -28t-28.5 -11t-28.5 11t-11.5 28t11.5 28.5t28.5 11.5t28.5 -11.5z" />
    <glyph glyph-name="uni0452" unicode="&#x452;" horiz-adv-x="592" 
d="M488 19q0 -68 -14.5 -108.5t-43.5 -65t-82 -48.5l-17 42q38 19 58.5 37.5t30.5 51t10 89.5v138v211q0 62 -25 91.5t-74 29.5t-88 -28t-74 -80v-379h-58v616h-75v47h75v73l58 7v-80h170v-47h-170v-180q71 98 173 98q70 0 108 -42.5t38 -117.5v-198v-157z" />
    <glyph glyph-name="uni0453" unicode="&#x453;" horiz-adv-x="423" 
d="M106 523h309l-7 -50h-244v-473h-58v523zM162 645l-19 34l188 103l26 -52z" />
    <glyph glyph-name="uni0454" unicode="&#x454;" horiz-adv-x="477" 
d="M287 -11q-103 0 -163 72t-60 200q0 83 28 144.5t78.5 95t116.5 33.5q43 0 79 -12.5t72 -40.5l-30 -38q-30 23 -57.5 33t-60.5 10q-70 0 -115 -50t-50 -144h243v-46h-243q2 -102 46 -155t116 -53q34 0 62.5 11t61.5 34l28 -40q-70 -54 -152 -54z" />
    <glyph glyph-name="uni0455" unicode="&#x455;" horiz-adv-x="464" 
d="M323 519.5q40 -14.5 78 -43.5l-28 -39q-35 26 -66.5 37.5t-70.5 11.5q-52 0 -84 -24t-32 -64q0 -38 27.5 -59t99.5 -40q89 -23 128.5 -58t39.5 -100q0 -70 -54 -111t-135 -41q-60 0 -105 17.5t-82 49.5l33 38q34 -28 70.5 -42t82.5 -14q58 0 93.5 26.5t35.5 72.5
q0 33 -12 53t-41 34t-85 30q-83 22 -119.5 55.5t-36.5 88.5q0 39 23 70t62.5 48.5t88.5 17.5t89 -14.5z" />
    <glyph glyph-name="uni0456" unicode="&#x456;" horiz-adv-x="270" 
d="M167 741q12 -12 12 -30t-12 -29.5t-32 -11.5q-19 0 -31 11.5t-12 29.5t12 30t31 12q20 0 32 -12zM106 0v523h58v-523h-58z" />
    <glyph glyph-name="uni0457" unicode="&#x457;" horiz-adv-x="270" 
d="M106 0v523h58v-523h-58zM68.5 730.5q11.5 -11.5 11.5 -28.5t-11.5 -28t-28.5 -11t-28.5 11t-11.5 28t11.5 28.5t28.5 11.5t28.5 -11.5zM257.5 730.5q11.5 -11.5 11.5 -28.5t-11.5 -28t-28.5 -11t-28.5 11t-11.5 28t11.5 28.5t28.5 11.5t28.5 -11.5z" />
    <glyph glyph-name="uni0458" unicode="&#x458;" horiz-adv-x="270" 
d="M166 741q12 -12 12 -30t-12 -29.5t-32 -11.5q-19 0 -31 11.5t-12 29.5t12 30t31 12q20 0 32 -12zM149 -89.5q-15 -40.5 -44 -65t-82 -48.5l-17 42q38 19 58.5 37.5t31 51t10.5 89.5v506h58v-504q0 -68 -15 -108.5z" />
    <glyph glyph-name="uni0459" unicode="&#x459;" horiz-adv-x="780" 
d="M742 177q0 -88 -55 -132.5t-142 -44.5h-152v476h-191l-16 -196q-9 -115 -19 -167t-33 -79t-73 -43l-16 47q33 12 47.5 32.5t21.5 64.5t15 151l20 237h302v-176h83q208 0 208 -170zM644 78.5q37 30.5 37 98.5q0 61 -34 92t-113 31h-83v-252h88q68 0 105 30.5z" />
    <glyph glyph-name="uni045A" unicode="&#x45a;" horiz-adv-x="804" 
d="M716 283q50 -42 50 -116q0 -82 -55 -124.5t-142 -42.5h-152v278h-253v-278h-58v523h58v-198h253v198h58v-198h83q108 0 158 -42zM705 167q0 54 -34 82.5t-112 28.5h-84v-230h89q141 0 141 119z" />
    <glyph glyph-name="uni045B" unicode="&#x45b;" horiz-adv-x="589" 
d="M450 491.5q38 -42.5 38 -117.5v-374h-58v366q0 121 -99 121q-49 0 -88 -27.5t-74 -79.5v-380h-58v616h-75v47h75v73l58 7v-80h171l-8 -47h-163v-180q71 98 173 98q70 0 108 -42.5z" />
    <glyph glyph-name="uni045C" unicode="&#x45c;" horiz-adv-x="499" 
d="M480 0h-68l-170 255h-78v-255h-58v523h58v-222h79l148 222h64l-164 -242zM180 645l-19 34l188 103l26 -52z" />
    <glyph glyph-name="uni045D" unicode="&#x45d;" horiz-adv-x="592" 
d="M429 0v324q0 63 6 132l-260 -456h-69v523h58v-307q0 -51 -6 -147l259 454h69v-523h-57zM392 645l-196 85l26 52l188 -103z" />
    <glyph glyph-name="uni045E" unicode="&#x45e;" horiz-adv-x="468" 
d="M227 -102q-25 -39 -65 -64.5t-103 -37.5l-6 45q52 13 81.5 32t47 47.5t35.5 79.5h-20l-182 523h63l158 -480l155 480h61l-179 -525q-21 -61 -46 -100zM141.5 678q-35.5 25 -42.5 68l40 8q19 -54 90 -54q72 0 91 54l40 -8q-7 -43 -43 -68t-88 -25t-87.5 25z" />
    <glyph glyph-name="uni045F" unicode="&#x45f;" horiz-adv-x="579" 
d="M319 0v-145h-46l-13 145h-154v523h58v-474h251v474h58v-523h-154z" />
    <glyph glyph-name="uni0462" unicode="&#x462;" horiz-adv-x="676" 
d="M568 367q64 -51 64 -152q0 -109 -66.5 -162t-180.5 -53h-167v632h-203v53h471l-8 -53h-201v-214h110q117 0 181 -51zM569 215q0 154 -180 154h-112v-319h116q176 0 176 165z" />
    <glyph glyph-name="uni0463" unicode="&#x463;" horiz-adv-x="511" 
d="M419.5 304.5q53.5 -43.5 53.5 -125.5q0 -90 -56 -134.5t-160 -44.5h-142v474h-79v46h79v116l58 7v-123h140l-9 -46h-131v-126h82q111 0 164.5 -43.5zM373.5 77.5q38.5 29.5 38.5 101.5q0 61 -37 91.5t-114 30.5h-88v-253h89q73 0 111.5 29.5z" />
    <glyph glyph-name="uni0472" unicode="&#x472;" horiz-adv-x="691" 
d="M492 655q63 -41 98 -120.5t35 -193.5q0 -110 -34.5 -189.5t-97.5 -121t-148 -41.5q-83 0 -146 41t-98 120t-35 190t35 191.5t98.5 122.5t145.5 42q84 0 147 -41zM193 576.5q-57 -68.5 -64 -203.5h433q-6 136 -63 204t-154 68q-95 0 -152 -68.5zM503 111.5
q57 71.5 60 214.5h-435q3 -141 61.5 -213.5t155.5 -72.5q101 0 158 71.5z" />
    <glyph glyph-name="uni0473" unicode="&#x473;" horiz-adv-x="571" 
d="M448.5 462.5q58.5 -71.5 58.5 -199.5q0 -127 -59.5 -200.5t-162.5 -73.5q-104 0 -162.5 72.5t-58.5 199.5q0 83 27 145t77 95t118 33q104 0 162.5 -71.5zM173.5 435.5q-41.5 -49.5 -47.5 -146.5h319q-4 96 -45.5 146t-113.5 50q-71 0 -112.5 -49.5zM400 89.5
q42 51.5 46 152.5h-320q4 -100 45 -152t114 -52t115 51.5z" />
    <glyph glyph-name="uni0474" unicode="&#x474;" horiz-adv-x="545" 
d="M488 556l-181 -556h-67l-224 685h65l193 -623l161 515q13 40 24 65.5t28 51.5l60 -11q-33 -48 -59 -127z" />
    <glyph glyph-name="uni0475" unicode="&#x475;" horiz-adv-x="470" 
d="M439 472q-12 -27 -29 -75l-140 -397h-68l-187 523h63l160 -474l120 367q15 46 26 71.5t23 41.5l60 -9q-16 -21 -28 -48z" />
    <glyph glyph-name="uni0490" unicode="&#x490;" horiz-adv-x="508" 
d="M498 685l-9 -53h-318v-632h-60v685h329v117h58v-117z" />
    <glyph glyph-name="uni0491" unicode="&#x491;" horiz-adv-x="422" 
d="M415 523l-7 -50h-244v-473h-58v523h252v121h57v-121z" />
    <glyph glyph-name="uni0492" unicode="&#x492;" horiz-adv-x="513" 
d="M176 401h166v-46h-166v-355h-60v355h-98v46h98v284h388l-10 -53h-318v-231z" />
    <glyph glyph-name="uni0493" unicode="&#x493;" horiz-adv-x="429" 
d="M171 300h124v-46h-124v-254h-58v254h-74v46h74v223h309l-8 -49h-243v-174z" />
    <glyph glyph-name="uni0496" unicode="&#x496;" horiz-adv-x="773" 
d="M791 -145h-46l-13 145h-37l-186 336h-94v-336h-57v336h-95l-186 -336h-67l205 363l-188 322h66l171 -299h94v299h57v-299h94l174 299h63l-188 -322l176 -312h57v-196z" />
    <glyph glyph-name="uni0497" unicode="&#x497;" horiz-adv-x="694" 
d="M700 -145h-46l-13 145h-39l-139 253h-89v-253h-55v253h-88l-141 -253h-62l156 279l-133 244h60l120 -224h88v224h55v-224h89l121 224h59l-133 -244l128 -230h62v-194z" />
    <glyph glyph-name="uni0498" unicode="&#x498;" horiz-adv-x="520" 
d="M411.5 54.5q-55.5 -55.5 -145.5 -63.5q72 -46 72 -117q0 -47 -30 -75t-83 -28q-48 0 -84 21l17 39q32 -17 66 -17q29 0 45.5 16.5t16.5 45.5q0 35 -19 62t-56 52q-113 8 -190 92l37 34q73 -75 174 -75q78 0 124.5 41.5t46.5 114.5q0 70 -44 107.5t-127 36.5h-62l8 51h52
q70 0 111.5 34t41.5 96q0 55 -36.5 89t-102.5 34q-90 0 -170 -70l-34 37q47 42 97.5 63t110.5 21q94 0 145.5 -47.5t51.5 -123.5q0 -64 -35.5 -103t-96.5 -52q67 -7 110.5 -51t43.5 -122q0 -87 -55.5 -142.5z" />
    <glyph glyph-name="uni0499" unicode="&#x499;" horiz-adv-x="482" 
d="M372.5 39q-45.5 -41 -122.5 -48q71 -46 71 -117q0 -47 -30 -75t-83 -28q-25 0 -46.5 6t-36.5 15l17 39q30 -17 65 -17q29 0 45.5 16.5t16.5 45.5q0 35 -19 62t-55 52q-98 5 -172 67l32 36q35 -27 72.5 -41t88.5 -14q64 0 102.5 27t38.5 87q0 53 -40 76t-114 23h-62l4 47
h50q64 0 100 25t36 72q0 44 -31 67.5t-85 23.5q-45 0 -77 -10.5t-68 -33.5l-29 36q40 28 83 42t97 14q73 0 121.5 -36.5t48.5 -99.5q0 -49 -27.5 -78.5t-81.5 -40.5q67 -7 101.5 -37.5t34.5 -90.5q0 -71 -45.5 -112z" />
    <glyph glyph-name="uni049A" unicode="&#x49a;" horiz-adv-x="561" 
d="M572 -145h-46l-13 145h-34l-200 336h-108v-336h-60v685h60v-299h109l188 299h63l-201 -322l188 -312h54v-196z" />
    <glyph glyph-name="uni049B" unicode="&#x49b;" horiz-adv-x="499" 
d="M509 -145h-46l-13 145h-38l-170 255h-78v-255h-58v523h58v-222h79l148 222h64l-164 -242l156 -232h62v-194z" />
    <glyph glyph-name="uni049C" unicode="&#x49c;" horiz-adv-x="561" 
d="M480 0l-192 336h-27v-181h-40v181h-51v-336h-59v685h59v-299h51v179h40v-179h28l179 299h63l-195 -322l212 -363h-68z" />
    <glyph glyph-name="uni049D" unicode="&#x49d;" horiz-adv-x="511" 
d="M416 0l-139 255h-31v-133h-36v133h-46v-255h-58v523h58v-222h46v117h36v-117h31l117 222h61l-129 -242l154 -281h-64z" />
    <glyph glyph-name="uni04A0" unicode="&#x4a0;" horiz-adv-x="614" 
d="M532 0l-199 335h-109v-335h-60v633h-164v52h209h15v-299h110l187 299h64l-201 -321l218 -364h-70z" />
    <glyph glyph-name="uni04A1" unicode="&#x4a1;" horiz-adv-x="546" 
d="M460 0l-170 255h-79v-255h-58v476h-150v47h209v-221h79l148 221h64l-165 -242l190 -281h-68z" />
    <glyph glyph-name="uni04A2" unicode="&#x4a2;" horiz-adv-x="670" 
d="M630 -145h-46l-13 145h-72v335h-328v-335h-60v685h60v-299h328v299h60v-634h71v-196z" />
    <glyph glyph-name="uni04A3" unicode="&#x4a3;" horiz-adv-x="588" 
d="M552 -145h-46l-13 145h-69v246h-260v-246h-58v523h58v-228h260v228h58v-474h70v-194z" />
    <glyph glyph-name="uni04AA" unicode="&#x4aa;" horiz-adv-x="550" 
d="M435 -126q0 -47 -30 -75t-83 -28q-48 0 -84 21l17 39q32 -17 66 -17q29 0 45.5 16.5t16.5 45.5q0 35 -19.5 62.5t-57.5 52.5q-71 9 -125 52.5t-84.5 119.5t-30.5 180q0 113 37 192.5t99.5 120t140.5 40.5q57 0 96.5 -15.5t79.5 -47.5l-32 -40q-35 28 -67 40t-73 12
q-97 0 -157.5 -74t-60.5 -228q0 -100 28 -168t76.5 -100.5t110.5 -32.5q48 0 81.5 14.5t69.5 43.5l32 -40q-67 -64 -162 -70q70 -47 70 -116z" />
    <glyph glyph-name="uni04AB" unicode="&#x4ab;" horiz-adv-x="469" 
d="M375 -126q0 -47 -30 -75t-83 -28q-25 0 -46.5 6t-36.5 15l17 39q30 -17 65 -17q29 0 45.5 16.5t16.5 45.5q0 36 -19.5 64t-58.5 52q-84 14 -132.5 83.5t-48.5 182.5q0 83 27.5 145.5t77.5 96.5t116 34q45 0 80 -12.5t68 -40.5l-29 -39q-26 22 -53.5 32t-62.5 10
q-74 0 -118 -57.5t-44 -167.5q0 -109 43.5 -164t117.5 -55q35 0 63.5 11t56.5 34l29 -40q-57 -49 -131 -55q70 -46 70 -116z" />
    <glyph glyph-name="uni04AC" unicode="&#x4ac;" horiz-adv-x="495" 
d="M277 51h72v-196h-46l-13 145h-72v632h-203v53h470l-7 -53h-201v-581z" />
    <glyph glyph-name="uni04AD" unicode="&#x4ad;" horiz-adv-x="433" 
d="M246 49h69v-194h-46l-13 145h-68v473h-180v50h419l-7 -50h-174v-424z" />
    <glyph glyph-name="uni04AE" unicode="&#x4ae;" horiz-adv-x="523" 
d="M292 0h-60v267l-219 418h67l184 -365l181 365h64l-217 -417v-268z" />
    <glyph glyph-name="uni04AF" unicode="&#x4af;" horiz-adv-x="470" 
d="M266 -197l-57 -8v222l-194 506h63l160 -448l156 448h61l-189 -506v-214z" />
    <glyph glyph-name="uni04B0" unicode="&#x4b0;" horiz-adv-x="523" 
d="M413 296v-47h-121v-249h-60v249h-121v47h106l-204 389h67l184 -365l181 365h64l-202 -389h106z" />
    <glyph glyph-name="uni04B1" unicode="&#x4b1;" horiz-adv-x="470" 
d="M371 50v-46h-105v-201l-57 -8v209h-105v46h93l-182 473h63l160 -448l156 448h61l-177 -473h93z" />
    <glyph glyph-name="uni04B2" unicode="&#x4b2;" horiz-adv-x="512" 
d="M529 -145h-46l-13 145h-34l-1 1l-181 329l-179 -330h-65l209 368l-188 317h68l156 -278l156 278h65l-186 -314l184 -320h55v-196z" />
    <glyph glyph-name="uni04B3" unicode="&#x4b3;" horiz-adv-x="459" 
d="M482 -145h-46l-13 145h-45l-151 243l-150 -243h-67l184 278l-160 245h68l128 -209l129 209h66l-161 -243l152 -231h66v-194z" />
    <glyph glyph-name="uni04B6" unicode="&#x4b6;" horiz-adv-x="594" 
d="M554 -145h-46l-13 145h-72v295q-41 -36 -84.5 -54t-98.5 -18q-88 0 -141.5 52.5t-53.5 143.5v266h60v-262q0 -72 39 -109.5t109 -37.5q53 0 97 20t73 54v335h60v-634h71v-196z" />
    <glyph glyph-name="uni04B7" unicode="&#x4b7;" horiz-adv-x="540" 
d="M504 -145h-46l-13 145h-68v241q-30 -30 -73 -48.5t-93 -18.5q-69 0 -110 37.5t-41 107.5v204h58v-197q0 -105 107 -105q44 0 85.5 20t66.5 52v230h58v-474h69v-194z" />
    <glyph glyph-name="uni04B8" unicode="&#x4b8;" horiz-adv-x="583" 
d="M483 0h-60v295q-64 -56 -135 -68v-110h-43v106h-5q-88 0 -141.5 52.5t-53.5 143.5v266h60v-262q0 -70 36.5 -107.5t103.5 -39.5v251h43v-249q41 6 76 25t59 47v335h60v-685z" />
    <glyph glyph-name="uni04B9" unicode="&#x4b9;" horiz-adv-x="540" 
d="M435 0h-58v241q-48 -48 -115 -62v-86h-40v81h-11q-69 0 -110 37.5t-41 107.5v204h58v-197q0 -103 104 -105v161h40v-157q34 7 64.5 25t50.5 43v230h58v-523z" />
    <glyph glyph-name="uni04BA" unicode="&#x4ba;" horiz-adv-x="594" 
d="M498 384.5q50 -52.5 50 -145.5v-239h-60v238q0 70 -35 108t-109 38q-54 0 -95.5 -21.5t-77.5 -66.5v-296h-60v685h60v-329q35 39 80 60t103 21q94 0 144 -52.5z" />
    <glyph glyph-name="uni04BB" unicode="&#x4bb;" horiz-adv-x="579" 
d="M445.5 432q37.5 -42 37.5 -118v-314h-58v306q0 63 -25 92t-74 29q-50 0 -88.5 -27.5t-73.5 -80.5v-319h-58v736l58 7v-365q32 45 76 70.5t97 25.5q71 0 108.5 -42z" />
    <glyph glyph-name="uni04C0" unicode="&#x4c0;" horiz-adv-x="282" 
d="M111 0v685h60v-685h-60z" />
    <glyph glyph-name="uni04C1" unicode="&#x4c1;" horiz-adv-x="773" 
d="M763 0h-68l-186 336h-94v-336h-57v336h-95l-186 -336h-67l205 363l-188 322h66l171 -299h94v299h57v-299h94l174 299h63l-188 -322zM298.5 804q-35.5 25 -42.5 68l40 9q10 -28 32 -41t58 -13q74 0 91 54l40 -9q-7 -43 -43 -68t-88 -25t-87.5 25z" />
    <glyph glyph-name="uni04C2" unicode="&#x4c2;" horiz-adv-x="694" 
d="M666 0h-64l-139 253h-89v-253h-55v253h-88l-141 -253h-62l156 279l-133 244h60l120 -224h88v224h55v-224h89l121 224h59l-133 -244zM258.5 678q-35.5 25 -42.5 68l40 8q19 -54 90 -54q72 0 91 54l40 -8q-7 -43 -43 -68t-88 -25t-87.5 25z" />
    <glyph glyph-name="uni04CB" unicode="&#x4cb;" horiz-adv-x="594" 
d="M483 0h-72l-13 -145h-46v196h71v244q-41 -36 -84.5 -54t-98.5 -18q-88 0 -141.5 52.5t-53.5 143.5v266h60v-262q0 -72 39 -109.5t109 -37.5q53 0 97 20t73 54v335h60v-685z" />
    <glyph glyph-name="uni04CC" unicode="&#x4cc;" horiz-adv-x="540" 
d="M435 0h-70l-13 -145h-46v194h71v197q-30 -31 -73 -49.5t-93 -18.5q-69 0 -110 38t-41 108v199h58v-192q0 -54 27 -79.5t80 -25.5q44 0 85.5 20t66.5 51v226h58v-523z" />
    <glyph glyph-name="uni04CF" unicode="&#x4cf;" horiz-adv-x="284" 
d="M169 51.5q10 -12.5 33 -12.5q20 0 35 7l16 -43q-31 -14 -62 -14q-43 0 -66.5 25t-23.5 76v646l58 7v-653q0 -26 10 -38.5z" />
    <glyph glyph-name="uni04D0" unicode="&#x4d0;" horiz-adv-x="565" 
d="M137 187l-60 -187h-61l229 685h75l228 -685h-63l-60 187h-288zM282 636l-129 -398h256zM194.5 804q-35.5 25 -42.5 68l40 9q10 -28 32 -41t58 -13q74 0 91 54l40 -9q-7 -43 -43 -68t-88 -25t-87.5 25z" />
    <glyph glyph-name="uni04D1" unicode="&#x4d1;" horiz-adv-x="536" 
d="M441.5 57q10.5 -18 33.5 -27l-13 -41q-36 8 -55.5 28t-25.5 59q-57 -87 -163 -87q-75 0 -118.5 42.5t-43.5 113.5q0 82 57.5 126t159.5 44h100v50q0 63 -28 91.5t-93 28.5q-60 0 -142 -30l-15 44q88 35 165 35q171 0 171 -166v-252q0 -41 10.5 -59zM373 130v142h-91
q-80 0 -122 -31t-42 -93q0 -54 29 -83t81 -29q96 0 145 94zM169.5 678q-35.5 25 -42.5 68l40 8q19 -54 90 -54q72 0 91 54l40 -8q-7 -43 -43 -68t-88 -25t-87.5 25z" />
    <glyph glyph-name="uni04D2" unicode="&#x4d2;" horiz-adv-x="565" 
d="M137 187l-60 -187h-61l229 685h75l228 -685h-63l-60 187h-288zM282 636l-129 -398h256zM215.5 856.5q11.5 -11.5 11.5 -28.5t-11.5 -28t-28.5 -11t-28.5 11t-11.5 28t11.5 28.5t28.5 11.5t28.5 -11.5zM405 856.5q11 -11.5 11 -28.5t-11 -28t-29 -11q-17 0 -28.5 11
t-11.5 28t11.5 28.5t28.5 11.5q18 0 29 -11.5z" />
    <glyph glyph-name="uni04D3" unicode="&#x4d3;" horiz-adv-x="536" 
d="M441.5 57q10.5 -18 33.5 -27l-13 -41q-36 8 -55.5 28t-25.5 59q-57 -87 -163 -87q-75 0 -118.5 42.5t-43.5 113.5q0 82 57.5 126t159.5 44h100v50q0 63 -28 91.5t-93 28.5q-60 0 -142 -30l-15 44q88 35 165 35q171 0 171 -166v-252q0 -41 10.5 -59zM373 130v142h-91
q-80 0 -122 -31t-42 -93q0 -54 29 -83t81 -29q96 0 145 94zM191.5 730.5q11.5 -11.5 11.5 -28.5t-11.5 -28t-28.5 -11t-28.5 11t-11.5 28t11.5 28.5t28.5 11.5t28.5 -11.5zM380.5 730.5q11.5 -11.5 11.5 -28.5t-11.5 -28t-28.5 -11t-28.5 11t-11.5 28t11.5 28.5t28.5 11.5
t28.5 -11.5z" />
    <glyph glyph-name="uni04D4" unicode="&#x4d4;" horiz-adv-x="784" 
d="M737 0h-276l-46 184h-285l-70 -184h-60l267 685h423l-7 -50h-325l66 -256h258v-49h-245l72 -280h228v-50zM302 637l-153 -402h254z" />
    <glyph glyph-name="uni04D5" unicode="&#x4d5;" horiz-adv-x="849" 
d="M786 239h-350q6 -102 49.5 -151.5t113.5 -49.5q41 0 73 12.5t68 39.5l28 -37q-39 -32 -80.5 -48t-91.5 -16q-63 0 -110.5 27.5t-75.5 79.5q-40 -57 -85 -82t-105 -25q-76 0 -120 43t-44 113q0 81 58.5 125.5t160.5 44.5h100v50q0 63 -28.5 91.5t-92.5 28.5
q-60 0 -142 -30l-16 44q88 35 165 35q66 0 105 -25.5t55 -75.5q54 101 166 101q97 0 149 -67.5t52 -185.5q0 -22 -2 -42zM730 299q0 88 -36 137.5t-107 49.5q-65 0 -106 -50t-45 -152h294v15zM316.5 61q38.5 25 74.5 80q-16 49 -16 115v2v14h-92q-79 0 -121.5 -31.5
t-42.5 -92.5q0 -54 29 -83t81 -29q49 0 87.5 25z" />
    <glyph glyph-name="uni04D6" unicode="&#x4d6;" horiz-adv-x="512" 
d="M171 635v-255h243v-50h-243v-280h295v-50h-355v685h348l-7 -50h-281zM200.5 804q-35.5 25 -42.5 68l40 9q10 -28 32 -41t58 -13q74 0 91 54l40 -9q-7 -43 -43 -68t-88 -25t-87.5 25z" />
    <glyph glyph-name="uni04D7" unicode="&#x4d7;" horiz-adv-x="538" 
d="M475 239h-349q5 -102 48.5 -151.5t114.5 -49.5q41 0 72.5 12.5t68.5 39.5l27 -37q-39 -32 -80 -48t-91 -16q-104 0 -163 71t-59 197q0 83 25.5 145.5t73 97t110.5 34.5q100 0 152 -67.5t52 -185.5q0 -22 -2 -42zM420 299q0 88 -36.5 137.5t-108.5 49.5q-64 0 -104.5 -50
t-45.5 -152h295v15zM187.5 678q-35.5 25 -42.5 68l40 8q19 -54 90 -54q72 0 91 54l40 -8q-7 -43 -43 -68t-88 -25t-87.5 25z" />
    <glyph glyph-name="uni04D8" unicode="&#x4d8;" horiz-adv-x="648" 
d="M512.5 610q69.5 -86 69.5 -264q0 -177 -72 -267t-193 -90q-124 0 -192.5 88t-68.5 255q0 26 2 41h461q-5 142 -57 207t-147 65q-53 0 -97.5 -17.5t-88.5 -52.5l-32 39q49 42 102 62t118 20q126 0 195.5 -86zM461 108.5q54 69.5 58 215.5h-402q1 -144 53.5 -214.5
t146.5 -70.5q90 0 144 69.5z" />
    <glyph glyph-name="uni04D9" unicode="&#x4d9;" horiz-adv-x="545" 
d="M427 464.5q54 -69.5 54 -200.5q0 -132 -57.5 -203.5t-155.5 -71.5q-95 0 -151 69t-56 188q0 15 2 39h356q-3 101 -42 150.5t-108 49.5q-41 0 -75 -12t-69 -38l-28 39q76 60 173 60q103 0 157 -69.5zM420 239h-301v-6q0 -93 39.5 -144.5t109.5 -51.5q146 0 152 202z" />
    <glyph glyph-name="uni04DA" unicode="&#x4da;" horiz-adv-x="648" 
d="M512.5 610q69.5 -86 69.5 -264q0 -177 -72 -267t-193 -90q-124 0 -192.5 88t-68.5 255q0 26 2 41h461q-5 142 -57 207t-147 65q-53 0 -97.5 -17.5t-88.5 -52.5l-32 39q49 42 102 62t118 20q126 0 195.5 -86zM461 108.5q54 69.5 58 215.5h-402q1 -144 53.5 -214.5
t146.5 -70.5q90 0 144 69.5zM250.5 856.5q11.5 -11.5 11.5 -28.5t-11.5 -28t-28.5 -11t-28.5 11t-11.5 28t11.5 28.5t28.5 11.5t28.5 -11.5zM440 856.5q11 -11.5 11 -28.5t-11 -28t-29 -11q-17 0 -28.5 11t-11.5 28t11.5 28.5t28.5 11.5q18 0 29 -11.5z" />
    <glyph glyph-name="uni04DB" unicode="&#x4db;" horiz-adv-x="545" 
d="M427 464.5q54 -69.5 54 -200.5q0 -132 -57.5 -203.5t-155.5 -71.5q-95 0 -151 69t-56 188q0 15 2 39h356q-3 101 -42 150.5t-108 49.5q-41 0 -75 -12t-69 -38l-28 39q76 60 173 60q103 0 157 -69.5zM420 239h-301v-6q0 -93 39.5 -144.5t109.5 -51.5q146 0 152 202z
M211.5 730.5q11.5 -11.5 11.5 -28.5t-11.5 -28t-28.5 -11t-28.5 11t-11.5 28t11.5 28.5t28.5 11.5t28.5 -11.5zM400.5 730.5q11.5 -11.5 11.5 -28.5t-11.5 -28t-28.5 -11t-28.5 11t-11.5 28t11.5 28.5t28.5 11.5t28.5 -11.5z" />
    <glyph glyph-name="uni04DC" unicode="&#x4dc;" horiz-adv-x="773" 
d="M763 0h-68l-186 336h-94v-336h-57v336h-95l-186 -336h-67l205 363l-188 322h66l171 -299h94v299h57v-299h94l174 299h63l-188 -322zM320.5 856.5q11.5 -11.5 11.5 -28.5t-11.5 -28t-28.5 -11t-28.5 11t-11.5 28t11.5 28.5t28.5 11.5t28.5 -11.5zM510 856.5
q11 -11.5 11 -28.5t-11 -28t-29 -11q-17 0 -28.5 11t-11.5 28t11.5 28.5t28.5 11.5q18 0 29 -11.5z" />
    <glyph glyph-name="uni04DD" unicode="&#x4dd;" horiz-adv-x="694" 
d="M666 0h-64l-139 253h-89v-253h-55v253h-88l-141 -253h-62l156 279l-133 244h60l120 -224h88v224h55v-224h89l121 224h59l-133 -244zM280.5 730.5q11.5 -11.5 11.5 -28.5t-11.5 -28t-28.5 -11t-28.5 11t-11.5 28t11.5 28.5t28.5 11.5t28.5 -11.5zM469.5 730.5
q11.5 -11.5 11.5 -28.5t-11.5 -28t-28.5 -11t-28.5 11t-11.5 28t11.5 28.5t28.5 11.5t28.5 -11.5z" />
    <glyph glyph-name="uni04DE" unicode="&#x4de;" horiz-adv-x="520" 
d="M393.5 648.5q51.5 -47.5 51.5 -123.5q0 -64 -35.5 -103t-96.5 -52q67 -7 110.5 -51t43.5 -122q0 -63 -30 -110t-83 -72.5t-120 -25.5q-126 0 -213 93l37 34q73 -75 174 -75q78 0 124.5 41.5t46.5 114.5q0 70 -44 107.5t-127 36.5h-62l8 51h52q70 0 111.5 34t41.5 96
q0 55 -36.5 89t-102.5 34q-90 0 -170 -70l-34 37q47 42 97.5 63t110.5 21q94 0 145.5 -47.5zM193.5 856.5q11.5 -11.5 11.5 -28.5t-11.5 -28t-28.5 -11t-28.5 11t-11.5 28t11.5 28.5t28.5 11.5t28.5 -11.5zM383 856.5q11 -11.5 11 -28.5t-11 -28t-29 -11q-17 0 -28.5 11
t-11.5 28t11.5 28.5t28.5 11.5q18 0 29 -11.5z" />
    <glyph glyph-name="uni04DF" unicode="&#x4df;" horiz-adv-x="482" 
d="M342.5 497.5q48.5 -36.5 48.5 -99.5q0 -49 -27.5 -78.5t-81.5 -40.5q67 -7 101.5 -37.5t34.5 -90.5q0 -78 -55.5 -120t-144.5 -42q-62 0 -109 18t-86 50l32 36q35 -27 72.5 -41t88.5 -14q64 0 102.5 27t38.5 87q0 53 -40 76t-114 23h-62l4 47h50q64 0 100 25t36 72
q0 44 -31 67.5t-85 23.5q-45 0 -77 -10.5t-68 -33.5l-29 36q40 28 83 42t97 14q73 0 121.5 -36.5zM152.5 730.5q11.5 -11.5 11.5 -28.5t-11.5 -28t-28.5 -11t-28.5 11t-11.5 28t11.5 28.5t28.5 11.5t28.5 -11.5zM341.5 730.5q11.5 -11.5 11.5 -28.5t-11.5 -28t-28.5 -11
t-28.5 11t-11.5 28t11.5 28.5t28.5 11.5t28.5 -11.5z" />
    <glyph glyph-name="uni04E2" unicode="&#x4e2;" horiz-adv-x="673" 
d="M502 0v365q0 155 8 253l-324 -618h-75v685h60v-365q0 -136 -8 -254l325 619h74v-685h-60zM216 847h241v-47h-241v47z" />
    <glyph glyph-name="uni04E3" unicode="&#x4e3;" horiz-adv-x="592" 
d="M429 0v324q0 63 6 132l-260 -456h-69v523h58v-307q0 -51 -6 -147l259 454h69v-523h-57zM175 723h241v-47h-241v47z" />
    <glyph glyph-name="uni04E4" unicode="&#x4e4;" horiz-adv-x="673" 
d="M502 0v365q0 155 8 253l-324 -618h-75v685h60v-365q0 -136 -8 -254l325 619h74v-685h-60zM270.5 856.5q11.5 -11.5 11.5 -28.5t-11.5 -28t-28.5 -11t-28.5 11t-11.5 28t11.5 28.5t28.5 11.5t28.5 -11.5zM460 856.5q11 -11.5 11 -28.5t-11 -28t-29 -11q-17 0 -28.5 11
t-11.5 28t11.5 28.5t28.5 11.5q18 0 29 -11.5z" />
    <glyph glyph-name="uni04E5" unicode="&#x4e5;" horiz-adv-x="592" 
d="M429 0v324q0 63 6 132l-260 -456h-69v523h58v-307q0 -51 -6 -147l259 454h69v-523h-57zM229.5 730.5q11.5 -11.5 11.5 -28.5t-11.5 -28t-28.5 -11t-28.5 11t-11.5 28t11.5 28.5t28.5 11.5t28.5 -11.5zM418.5 730.5q11.5 -11.5 11.5 -28.5t-11.5 -28t-28.5 -11t-28.5 11
t-11.5 28t11.5 28.5t28.5 11.5t28.5 -11.5z" />
    <glyph glyph-name="uni04E6" unicode="&#x4e6;" horiz-adv-x="691" 
d="M492 655.5q63 -40.5 98 -120.5t35 -193q0 -111 -34.5 -190.5t-97.5 -121t-148 -41.5q-83 0 -146 41t-98 120t-35 191q0 111 35 191t98.5 122t145.5 42q84 0 147 -40.5zM187 568.5q-58 -76.5 -58 -227.5q0 -149 58.5 -225t157.5 -76q103 0 160 75.5t57 226.5
q0 152 -57.5 227.5t-159.5 75.5q-100 0 -158 -76.5zM272.5 856.5q11.5 -11.5 11.5 -28.5t-11.5 -28t-28.5 -11t-28.5 11t-11.5 28t11.5 28.5t28.5 11.5t28.5 -11.5zM462 856.5q11 -11.5 11 -28.5t-11 -28t-29 -11q-17 0 -28.5 11t-11.5 28t11.5 28.5t28.5 11.5
q18 0 29 -11.5z" />
    <glyph glyph-name="uni04E7" unicode="&#x4e7;" horiz-adv-x="571" 
d="M448.5 462.5q58.5 -71.5 58.5 -199.5q0 -127 -59.5 -200.5t-162.5 -73.5q-104 0 -162.5 72.5t-58.5 199.5q0 83 27 145t77 95t118 33q104 0 162.5 -71.5zM168 428q-42 -57 -42 -167q0 -109 41.5 -166t117.5 -57t118.5 57t42.5 168q0 109 -41.5 165.5t-118.5 56.5
q-76 0 -118 -57zM219.5 730.5q11.5 -11.5 11.5 -28.5t-11.5 -28t-28.5 -11t-28.5 11t-11.5 28t11.5 28.5t28.5 11.5t28.5 -11.5zM408.5 730.5q11.5 -11.5 11.5 -28.5t-11.5 -28t-28.5 -11t-28.5 11t-11.5 28t11.5 28.5t28.5 11.5t28.5 -11.5z" />
    <glyph glyph-name="uni04E8" unicode="&#x4e8;" horiz-adv-x="691" 
d="M492 655q63 -41 98 -120.5t35 -193.5q0 -110 -34.5 -189.5t-97.5 -121t-148 -41.5q-83 0 -146 41t-98 120t-35 190t35 191.5t98.5 122.5t145.5 42q84 0 147 -41zM193 576.5q-57 -68.5 -64 -203.5h433q-6 136 -63 204t-154 68q-95 0 -152 -68.5zM503 111.5
q57 71.5 60 214.5h-435q3 -141 61.5 -213.5t155.5 -72.5q101 0 158 71.5z" />
    <glyph glyph-name="uni04E9" unicode="&#x4e9;" horiz-adv-x="571" 
d="M448.5 462.5q58.5 -71.5 58.5 -199.5q0 -127 -59.5 -200.5t-162.5 -73.5q-104 0 -162.5 72.5t-58.5 199.5q0 83 27 145t77 95t118 33q104 0 162.5 -71.5zM173.5 435.5q-41.5 -49.5 -47.5 -146.5h319q-4 96 -45.5 146t-113.5 50q-71 0 -112.5 -49.5zM400 89.5
q42 51.5 46 152.5h-320q4 -100 45 -152t114 -52t115 51.5z" />
    <glyph glyph-name="uni04EA" unicode="&#x4ea;" horiz-adv-x="691" 
d="M492 655q63 -41 98 -120.5t35 -193.5q0 -110 -34.5 -189.5t-97.5 -121t-148 -41.5q-83 0 -146 41t-98 120t-35 190t35 191.5t98.5 122.5t145.5 42q84 0 147 -41zM193 576.5q-57 -68.5 -64 -203.5h433q-6 136 -63 204t-154 68q-95 0 -152 -68.5zM503 111.5
q57 71.5 60 214.5h-435q3 -141 61.5 -213.5t155.5 -72.5q101 0 158 71.5zM278.5 856.5q11.5 -11.5 11.5 -28.5t-11.5 -28t-28.5 -11t-28.5 11t-11.5 28t11.5 28.5t28.5 11.5t28.5 -11.5zM468 856.5q11 -11.5 11 -28.5t-11 -28t-29 -11q-17 0 -28.5 11t-11.5 28t11.5 28.5
t28.5 11.5q18 0 29 -11.5z" />
    <glyph glyph-name="uni04EB" unicode="&#x4eb;" horiz-adv-x="571" 
d="M448.5 462.5q58.5 -71.5 58.5 -199.5q0 -127 -59.5 -200.5t-162.5 -73.5q-104 0 -162.5 72.5t-58.5 199.5q0 83 27 145t77 95t118 33q104 0 162.5 -71.5zM173.5 435.5q-41.5 -49.5 -47.5 -146.5h319q-4 96 -45.5 146t-113.5 50q-71 0 -112.5 -49.5zM400 89.5
q42 51.5 46 152.5h-320q4 -100 45 -152t114 -52t115 51.5zM218.5 730.5q11.5 -11.5 11.5 -28.5t-11.5 -28t-28.5 -11t-28.5 11t-11.5 28t11.5 28.5t28.5 11.5t28.5 -11.5zM407.5 730.5q11.5 -11.5 11.5 -28.5t-11.5 -28t-28.5 -11t-28.5 11t-11.5 28t11.5 28.5t28.5 11.5
t28.5 -11.5z" />
    <glyph glyph-name="uni04EC" unicode="&#x4ec;" horiz-adv-x="535" 
d="M403 609.5q66 -86.5 66 -266.5q0 -172 -64.5 -263t-185.5 -91q-60 0 -104.5 19.5t-83.5 52.5l32 40q36 -30 70.5 -44.5t83.5 -14.5q92 0 140.5 71.5t49.5 216.5h-281v51h280q-6 136 -54.5 200t-129.5 64q-47 0 -82 -12.5t-78 -42.5l-32 38q43 34 89.5 51t104.5 17
q113 0 179 -86.5zM161.5 856.5q11.5 -11.5 11.5 -28.5t-11.5 -28t-28.5 -11t-28.5 11t-11.5 28t11.5 28.5t28.5 11.5t28.5 -11.5zM351 856.5q11 -11.5 11 -28.5t-11 -28t-29 -11q-17 0 -28.5 11t-11.5 28t11.5 28.5t28.5 11.5q18 0 29 -11.5z" />
    <glyph glyph-name="uni04ED" unicode="&#x4ed;" horiz-adv-x="475" 
d="M357 465q54 -69 54 -201q0 -130 -54 -202.5t-155 -72.5q-51 0 -90.5 15t-73.5 43l29 38q31 -24 61 -35.5t71 -11.5q71 0 110 52t42 157h-234v46h233q-5 99 -42 146t-105 47q-38 0 -69 -11t-64 -33l-27 37q35 27 73.5 41t87.5 14q99 0 153 -69zM150.5 730.5
q11.5 -11.5 11.5 -28.5t-11.5 -28t-28.5 -11t-28.5 11t-11.5 28t11.5 28.5t28.5 11.5t28.5 -11.5zM339.5 730.5q11.5 -11.5 11.5 -28.5t-11.5 -28t-28.5 -11t-28.5 11t-11.5 28t11.5 28.5t28.5 11.5t28.5 -11.5z" />
    <glyph glyph-name="uni04EE" unicode="&#x4ee;" horiz-adv-x="519" 
d="M258.5 79.5q-24.5 -37.5 -58.5 -57.5t-92 -33l-11 45q46 12 72 27t46 44.5t42 86.5h-21l-228 493h64l204 -454l178 454h61l-202 -495q-30 -73 -54.5 -110.5zM144 847h241v-47h-241v47z" />
    <glyph glyph-name="uni04EF" unicode="&#x4ef;" horiz-adv-x="468" 
d="M227 -102q-25 -39 -65 -64.5t-103 -37.5l-6 45q52 13 81.5 32t47 47.5t35.5 79.5h-20l-182 523h63l158 -480l155 480h61l-179 -525q-21 -61 -46 -100zM109 723h241v-47h-241v47z" />
    <glyph glyph-name="uni04F0" unicode="&#x4f0;" horiz-adv-x="519" 
d="M258.5 79.5q-24.5 -37.5 -58.5 -57.5t-92 -33l-11 45q46 12 72 27t46 44.5t42 86.5h-21l-228 493h64l204 -454l178 454h61l-202 -495q-30 -73 -54.5 -110.5zM198.5 856.5q11.5 -11.5 11.5 -28.5t-11.5 -28t-28.5 -11t-28.5 11t-11.5 28t11.5 28.5t28.5 11.5t28.5 -11.5z
M388 856.5q11 -11.5 11 -28.5t-11 -28t-29 -11q-17 0 -28.5 11t-11.5 28t11.5 28.5t28.5 11.5q18 0 29 -11.5z" />
    <glyph glyph-name="uni04F1" unicode="&#x4f1;" horiz-adv-x="468" 
d="M227 -102q-25 -39 -65 -64.5t-103 -37.5l-6 45q52 13 81.5 32t47 47.5t35.5 79.5h-20l-182 523h63l158 -480l155 480h61l-179 -525q-21 -61 -46 -100zM162.5 730.5q11.5 -11.5 11.5 -28.5t-11.5 -28t-28.5 -11t-28.5 11t-11.5 28t11.5 28.5t28.5 11.5t28.5 -11.5z
M351.5 730.5q11.5 -11.5 11.5 -28.5t-11.5 -28t-28.5 -11t-28.5 11t-11.5 28t11.5 28.5t28.5 11.5t28.5 -11.5z" />
    <glyph glyph-name="uni04F2" unicode="&#x4f2;" horiz-adv-x="519" 
d="M258.5 79.5q-24.5 -37.5 -58.5 -57.5t-92 -33l-11 45q46 12 72 27t46 44.5t42 86.5h-21l-228 493h64l204 -454l178 454h61l-202 -495q-30 -73 -54.5 -110.5zM333 768l-39 18l79 151l53 -27zM212 773l-39 17l71 147l52 -27z" />
    <glyph glyph-name="uni04F3" unicode="&#x4f3;" horiz-adv-x="468" 
d="M227 -102q-25 -39 -65 -64.5t-103 -37.5l-6 45q52 13 81.5 32t47 47.5t35.5 79.5h-20l-182 523h63l158 -480l155 480h61l-179 -525q-21 -61 -46 -100zM303 642l-38 18l79 151l52 -27zM182 647l-38 17l71 147l52 -28z" />
    <glyph glyph-name="uni04F4" unicode="&#x4f4;" horiz-adv-x="594" 
d="M483 0h-60v295q-41 -36 -84.5 -54t-98.5 -18q-88 0 -141.5 52.5t-53.5 143.5v266h60v-262q0 -72 39 -109.5t109 -37.5q53 0 97 20t73 54v335h60v-685zM197.5 856.5q11.5 -11.5 11.5 -28.5t-11.5 -28t-28.5 -11t-28.5 11t-11.5 28t11.5 28.5t28.5 11.5t28.5 -11.5z
M387 856.5q11 -11.5 11 -28.5t-11 -28t-29 -11q-17 0 -28.5 11t-11.5 28t11.5 28.5t28.5 11.5q18 0 29 -11.5z" />
    <glyph glyph-name="uni04F5" unicode="&#x4f5;" horiz-adv-x="540" 
d="M435 0h-58v241q-30 -30 -73 -48.5t-93 -18.5q-69 0 -110 37.5t-41 107.5v204h58v-197q0 -105 107 -105q44 0 85.5 20t66.5 52v230h58v-523zM180.5 730.5q11.5 -11.5 11.5 -28.5t-11.5 -28t-28.5 -11t-28.5 11t-11.5 28t11.5 28.5t28.5 11.5t28.5 -11.5zM369.5 730.5
q11.5 -11.5 11.5 -28.5t-11.5 -28t-28.5 -11t-28.5 11t-11.5 28t11.5 28.5t28.5 11.5t28.5 -11.5z" />
    <glyph glyph-name="uni04F6" unicode="&#x4f6;" horiz-adv-x="508" 
d="M171 51h71v-196h-46l-13 145h-72v685h387l-9 -53h-318v-581z" />
    <glyph glyph-name="uni04F7" unicode="&#x4f7;" horiz-adv-x="423" 
d="M164 49h69v-194h-46l-13 145h-68v523h309l-7 -50h-244v-424z" />
    <glyph glyph-name="uni04F8" unicode="&#x4f8;" horiz-adv-x="797" 
d="M450.5 371.5q64.5 -51.5 64.5 -153.5q0 -111 -66 -164.5t-180 -53.5h-158v685h60v-262h98q117 0 181.5 -51.5zM686 0h-60v685h60v-685zM406 89q46 39 46 128q0 82 -46.5 119.5t-134.5 37.5h-100v-324h106q83 0 129 39zM333.5 856.5q11.5 -11.5 11.5 -28.5t-11.5 -28
t-28.5 -11t-28.5 11t-11.5 28t11.5 28.5t28.5 11.5t28.5 -11.5zM523 856.5q11 -11.5 11 -28.5t-11 -28t-29 -11q-17 0 -28.5 11t-11.5 28t11.5 28.5t28.5 11.5q18 0 29 -11.5z" />
    <glyph glyph-name="uni04F9" unicode="&#x4f9;" horiz-adv-x="714" 
d="M455 177q0 -88 -55 -132.5t-143 -44.5h-151v523h58v-176h82q209 0 209 -170zM608 0h-58v523h58v-523zM356.5 78.5q36.5 30.5 36.5 98.5q0 61 -33.5 92t-112.5 31h-83v-252h88q68 0 104.5 30.5zM290.5 730.5q11.5 -11.5 11.5 -28.5t-11.5 -28t-28.5 -11t-28.5 11t-11.5 28
t11.5 28.5t28.5 11.5t28.5 -11.5zM479.5 730.5q11.5 -11.5 11.5 -28.5t-11.5 -28t-28.5 -11t-28.5 11t-11.5 28t11.5 28.5t28.5 11.5t28.5 -11.5z" />
    <glyph glyph-name="uni051C" unicode="&#x51c;" horiz-adv-x="810" 
d="M554 0l-150 618l-150 -618h-73l-151 685h61l130 -630l150 630h67l153 -630l131 630h57l-150 -685h-75z" />
    <glyph glyph-name="uni051D" unicode="&#x51d;" horiz-adv-x="698" 
d="M467 0l-116 469l-118 -469h-77l-131 523h60l112 -478l122 478h66l120 -479l111 479h57l-128 -523h-78z" />
    <glyph glyph-name="uni0524" unicode="&#x524;" horiz-adv-x="665" 
d="M625 -145h-46l-13 145h-72v633h-323v-633h-60v685h443v-634h71v-196z" />
    <glyph glyph-name="uni0525" unicode="&#x525;" horiz-adv-x="585" 
d="M549 -145h-46l-13 145h-69v474h-257v-474h-58v523h373v-474h70v-194z" />
    <glyph glyph-name="uni0526" unicode="&#x526;" horiz-adv-x="594" 
d="M619 -145h-46l-13 145h-72v238q0 70 -35 108t-109 38q-54 0 -95.5 -21.5t-77.5 -66.5v-296h-60v685h60v-329q35 39 80 60t103 21q94 0 144 -52.5t50 -145.5v-188h71v-196z" />
    <glyph glyph-name="uni0527" unicode="&#x527;" horiz-adv-x="579" 
d="M550 -145h-46l-13 145h-66v306q0 63 -25 92t-74 29q-50 0 -88.5 -27.5t-73.5 -80.5v-319h-58v736l58 7v-365q32 45 76 70.5t97 25.5q71 0 108.5 -42t37.5 -118v-265h67v-194z" />
    <glyph glyph-name="Wgrave" unicode="&#x1e80;" horiz-adv-x="810" 
d="M554 0l-150 618l-150 -618h-73l-151 685h61l130 -630l150 630h67l153 -630l131 630h57l-150 -685h-75zM488 758l-198 78l26 52l188 -96z" />
    <glyph glyph-name="wgrave" unicode="&#x1e81;" horiz-adv-x="698" 
d="M467 0l-116 469l-118 -469h-77l-131 523h60l112 -478l122 478h66l120 -479l111 479h57l-128 -523h-78zM445 645l-196 85l26 52l188 -103z" />
    <glyph glyph-name="Wacute" unicode="&#x1e82;" horiz-adv-x="810" 
d="M554 0l-150 618l-150 -618h-73l-151 685h61l130 -630l150 630h67l153 -630l131 630h57l-150 -685h-75zM317 758l-16 34l187 96l27 -52z" />
    <glyph glyph-name="wacute" unicode="&#x1e83;" horiz-adv-x="698" 
d="M467 0l-116 469l-118 -469h-77l-131 523h60l112 -478l122 478h66l120 -479l111 479h57l-128 -523h-78zM251 645l-19 34l188 103l26 -52z" />
    <glyph glyph-name="Wdieresis" unicode="&#x1e84;" horiz-adv-x="810" 
d="M554 0l-150 618l-150 -618h-73l-151 685h61l130 -630l150 630h67l153 -630l131 630h57l-150 -685h-75zM337.5 856.5q11.5 -11.5 11.5 -28.5t-11.5 -28t-28.5 -11t-28.5 11t-11.5 28t11.5 28.5t28.5 11.5t28.5 -11.5zM527 856.5q11 -11.5 11 -28.5t-11 -28t-29 -11
q-17 0 -28.5 11t-11.5 28t11.5 28.5t28.5 11.5q18 0 29 -11.5z" />
    <glyph glyph-name="wdieresis" unicode="&#x1e85;" horiz-adv-x="698" 
d="M467 0l-116 469l-118 -469h-77l-131 523h60l112 -478l122 478h66l120 -479l111 479h57l-128 -523h-78zM282.5 730.5q11.5 -11.5 11.5 -28.5t-11.5 -28t-28.5 -11t-28.5 11t-11.5 28t11.5 28.5t28.5 11.5t28.5 -11.5zM471.5 730.5q11.5 -11.5 11.5 -28.5t-11.5 -28
t-28.5 -11t-28.5 11t-11.5 28t11.5 28.5t28.5 11.5t28.5 -11.5z" />
    <glyph glyph-name="Ygrave" unicode="&#x1ef2;" horiz-adv-x="523" 
d="M292 0h-60v267l-219 418h67l184 -365l181 365h64l-217 -417v-268zM344 758l-198 78l26 52l188 -96z" />
    <glyph glyph-name="ygrave" unicode="&#x1ef3;" horiz-adv-x="468" 
d="M227 -102q-25 -39 -65 -64.5t-103 -37.5l-6 45q52 13 81.5 32t47 47.5t35.5 79.5h-20l-182 523h63l158 -480l155 480h61l-179 -525q-21 -61 -46 -100zM325 645l-196 85l26 52l188 -103z" />
    <glyph glyph-name="uni1F70" unicode="&#x1f70;" horiz-adv-x="591" 
d="M337.5 516.5q33.5 -17.5 56 -59.5t35.5 -116l38 182h56l-59 -261l30 -170q4 -22 14 -33t28 -18l-21 -49q-64 13 -74 79l-16 107q-22 -94 -65.5 -141.5t-111.5 -47.5q-87 0 -135 69t-48 203q0 80 22.5 142t65.5 96.5t102 34.5q49 0 82.5 -17.5zM163 427q-37 -59 -37 -166
q0 -114 33 -169t95 -55q53 0 93.5 51t64.5 180q-16 85 -37 132.5t-48.5 66.5t-67.5 19q-59 0 -96 -59zM375 645l-196 85l26 52l188 -103z" />
    <glyph glyph-name="uni1F71" unicode="&#x1f71;" horiz-adv-x="591" 
d="M337.5 516.5q33.5 -17.5 56 -59.5t35.5 -116l38 182h56l-59 -261l30 -170q4 -22 14 -33t28 -18l-21 -49q-64 13 -74 79l-16 107q-22 -94 -65.5 -141.5t-111.5 -47.5q-87 0 -135 69t-48 203q0 80 22.5 142t65.5 96.5t102 34.5q49 0 82.5 -17.5zM163 427q-37 -59 -37 -166
q0 -114 33 -169t95 -55q53 0 93.5 51t64.5 180q-16 85 -37 132.5t-48.5 66.5t-67.5 19q-59 0 -96 -59zM181 645l-19 34l188 103l26 -52z" />
    <glyph glyph-name="uni1F72" unicode="&#x1f72;" horiz-adv-x="460" 
d="M421 487l-31 -37q-27 18 -56.5 27t-68.5 9q-57 0 -88.5 -25t-31.5 -69q0 -42 33.5 -68.5t89.5 -26.5h60l-8 -47h-56q-71 0 -104 -24.5t-33 -82.5q0 -49 36 -77t97 -28q46 0 78 12.5t69 39.5l30 -38q-76 -63 -180 -63q-86 0 -139.5 40.5t-53.5 111.5q0 124 132 136
q-54 10 -82.5 42t-28.5 78q0 64 48 100.5t127 36.5q91 0 161 -47zM353 645l-196 85l26 52l188 -103z" />
    <glyph glyph-name="uni1F73" unicode="&#x1f73;" horiz-adv-x="460" 
d="M421 487l-31 -37q-27 18 -56.5 27t-68.5 9q-57 0 -88.5 -25t-31.5 -69q0 -42 33.5 -68.5t89.5 -26.5h60l-8 -47h-56q-71 0 -104 -24.5t-33 -82.5q0 -49 36 -77t97 -28q46 0 78 12.5t69 39.5l30 -38q-76 -63 -180 -63q-86 0 -139.5 40.5t-53.5 111.5q0 124 132 136
q-54 10 -82.5 42t-28.5 78q0 64 48 100.5t127 36.5q91 0 161 -47zM159 645l-19 34l188 103l26 -52z" />
    <glyph glyph-name="uni1F74" unicode="&#x1f74;" horiz-adv-x="588" 
d="M449.5 492q37.5 -42 37.5 -118v-579l-58 8v563q0 63 -25 92t-74 29q-50 0 -89 -28t-73 -80v-379h-58v355q0 54 -6.5 93t-17.5 76l53 7q16 -39 24 -101q33 49 78 76.5t100 27.5q71 0 108.5 -42zM381 645l-196 85l26 52l188 -103z" />
    <glyph glyph-name="uni1F75" unicode="&#x1f75;" horiz-adv-x="588" 
d="M449.5 492q37.5 -42 37.5 -118v-579l-58 8v563q0 63 -25 92t-74 29q-50 0 -89 -28t-73 -80v-379h-58v355q0 54 -6.5 93t-17.5 76l53 7q16 -39 24 -101q33 49 78 76.5t100 27.5q71 0 108.5 -42zM187 645l-19 34l188 103l26 -52z" />
    <glyph glyph-name="uni1F76" unicode="&#x1f76;" horiz-adv-x="263" 
d="M169.5 66.5q10.5 -18.5 36.5 -29.5l-18 -45q-48 13 -67.5 41.5t-19.5 85.5v404h58v-399q0 -39 10.5 -57.5zM226 645l-196 85l26 52l188 -103z" />
    <glyph glyph-name="uni1F77" unicode="&#x1f77;" horiz-adv-x="263" 
d="M169.5 66.5q10.5 -18.5 36.5 -29.5l-18 -45q-48 13 -67.5 41.5t-19.5 85.5v404h58v-399q0 -39 10.5 -57.5zM32 645l-19 34l188 103l26 -52z" />
    <glyph glyph-name="uni1F78" unicode="&#x1f78;" horiz-adv-x="571" 
d="M448.5 462.5q58.5 -71.5 58.5 -199.5q0 -127 -59.5 -200.5t-162.5 -73.5q-104 0 -162.5 72.5t-58.5 199.5q0 83 27 145t77 95t118 33q104 0 162.5 -71.5zM168 428q-42 -57 -42 -167q0 -109 41.5 -166t117.5 -57t118.5 57t42.5 168q0 109 -41.5 165.5t-118.5 56.5
q-76 0 -118 -57zM379 645l-196 85l26 52l188 -103z" />
    <glyph glyph-name="uni1F79" unicode="&#x1f79;" horiz-adv-x="571" 
d="M448.5 462.5q58.5 -71.5 58.5 -199.5q0 -127 -59.5 -200.5t-162.5 -73.5q-104 0 -162.5 72.5t-58.5 199.5q0 83 27 145t77 95t118 33q104 0 162.5 -71.5zM168 428q-42 -57 -42 -167q0 -109 41.5 -166t117.5 -57t118.5 57t42.5 168q0 109 -41.5 165.5t-118.5 56.5
q-76 0 -118 -57zM185 645l-19 34l188 103l26 -52z" />
    <glyph glyph-name="uni1F7A" unicode="&#x1f7a;" horiz-adv-x="564" 
d="M483 260q0 -91 -29.5 -152t-77.5 -90t-106 -29q-75 0 -122 44t-47 126v364h58v-360q0 -63 31 -94t82 -31q63 0 107.5 53.5t44.5 172.5t-26 259h59q26 -150 26 -263zM377 645l-196 85l26 52l188 -103z" />
    <glyph glyph-name="uni1F7B" unicode="&#x1f7b;" horiz-adv-x="564" 
d="M483 260q0 -91 -29.5 -152t-77.5 -90t-106 -29q-75 0 -122 44t-47 126v364h58v-360q0 -63 31 -94t82 -31q63 0 107.5 53.5t44.5 172.5t-26 259h59q26 -150 26 -263zM183 645l-19 34l188 103l26 -52z" />
    <glyph glyph-name="uni1F7C" unicode="&#x1f7c;" horiz-adv-x="774" 
d="M698 237q0 -131 -50 -189.5t-126 -58.5q-55 0 -91 30.5t-44 93.5q-21 -124 -139 -124q-78 0 -125 61t-47 188q0 84 16 151.5t42 133.5h58q-29 -75 -43 -143t-14 -138q0 -204 119 -204q48 0 76 32t28 109v174l57 8v-182q0 -75 27.5 -108t73.5 -33q123 0 123 198
q0 144 -57 287h59q57 -139 57 -286zM484 645l-196 85l26 52l188 -103z" />
    <glyph glyph-name="uni1F7D" unicode="&#x1f7d;" horiz-adv-x="774" 
d="M698 237q0 -131 -50 -189.5t-126 -58.5q-55 0 -91 30.5t-44 93.5q-21 -124 -139 -124q-78 0 -125 61t-47 188q0 84 16 151.5t42 133.5h58q-29 -75 -43 -143t-14 -138q0 -204 119 -204q48 0 76 32t28 109v174l57 8v-182q0 -75 27.5 -108t73.5 -33q123 0 123 198
q0 144 -57 287h59q57 -139 57 -286zM290 645l-19 34l188 103l26 -52z" />
    <glyph glyph-name="uni1FB0" unicode="&#x1fb0;" horiz-adv-x="591" 
d="M337.5 516.5q33.5 -17.5 56 -59.5t35.5 -116l38 182h56l-59 -261l30 -170q4 -22 14 -33t28 -18l-21 -49q-64 13 -74 79l-16 107q-22 -94 -65.5 -141.5t-111.5 -47.5q-87 0 -135 69t-48 203q0 80 22.5 142t65.5 96.5t102 34.5q49 0 82.5 -17.5zM163 427q-37 -59 -37 -166
q0 -114 33 -169t95 -55q53 0 93.5 51t64.5 180q-16 85 -37 132.5t-48.5 66.5t-67.5 19q-59 0 -96 -59zM191.5 683q-35.5 30 -42.5 80l40 9q20 -72 90 -72q71 0 91 72l40 -9q-7 -50 -43 -80t-88 -30t-87.5 30z" />
    <glyph glyph-name="uni1FB1" unicode="&#x1fb1;" horiz-adv-x="591" 
d="M337.5 516.5q33.5 -17.5 56 -59.5t35.5 -116l38 182h56l-59 -261l30 -170q4 -22 14 -33t28 -18l-21 -49q-64 13 -74 79l-16 107q-22 -94 -65.5 -141.5t-111.5 -47.5q-87 0 -135 69t-48 203q0 80 22.5 142t65.5 96.5t102 34.5q49 0 82.5 -17.5zM163 427q-37 -59 -37 -166
q0 -114 33 -169t95 -55q53 0 93.5 51t64.5 180q-16 85 -37 132.5t-48.5 66.5t-67.5 19q-59 0 -96 -59zM159 723h241v-47h-241v47z" />
    <glyph glyph-name="uni1FB6" unicode="&#x1fb6;" horiz-adv-x="591" 
d="M337.5 516.5q33.5 -17.5 56 -59.5t35.5 -116l38 182h56l-59 -261l30 -170q4 -22 14 -33t28 -18l-21 -49q-64 13 -74 79l-16 107q-22 -94 -65.5 -141.5t-111.5 -47.5q-87 0 -135 69t-48 203q0 80 22.5 142t65.5 96.5t102 34.5q49 0 82.5 -17.5zM163 427q-37 -59 -37 -166
q0 -114 33 -169t95 -55q53 0 93.5 51t64.5 180q-16 85 -37 132.5t-48.5 66.5t-67.5 19q-59 0 -96 -59zM305 673.5q-16 6.5 -39 19.5q-14 10 -24 14.5t-21 4.5q-19 0 -30 -8.5t-26 -31.5l-36 18q37 68 92 68q16 0 31 -6.5t33 -17.5q3 -2 14.5 -8t21 -9.5t18.5 -3.5
q15 0 27.5 10t27.5 33l36 -18q-17 -36 -40 -54t-48 -18q-21 1 -37 7.5z" />
    <glyph glyph-name="uni1FB8" unicode="&#x1fb8;" horiz-adv-x="565" 
d="M137 187l-60 -187h-61l229 685h75l228 -685h-63l-60 187h-288zM282 636l-129 -398h256zM192 793.5q-36 28.5 -43 71.5l40 9q10 -29 33 -45.5t57 -16.5t57.5 16.5t33.5 45.5l40 -9q-7 -43 -43.5 -71.5t-87.5 -28.5t-87 28.5z" />
    <glyph glyph-name="uni1FB9" unicode="&#x1fb9;" horiz-adv-x="565" 
d="M137 187l-60 -187h-61l229 685h75l228 -685h-63l-60 187h-288zM282 636l-129 -398h256zM159 847h241v-47h-241v47z" />
    <glyph glyph-name="uni1FBA" unicode="&#x1fba;" horiz-adv-x="565" 
d="M137 187l-60 -187h-61l229 685h75l228 -685h-63l-60 187h-288zM282 636l-129 -398h256zM363 758l-198 78l26 52l188 -96z" />
    <glyph glyph-name="uni1FBB" unicode="&#x1fbb;" horiz-adv-x="565" 
d="M137 187l-60 -187h-61l229 685h75l228 -685h-63l-60 187h-288zM282 636l-129 -398h256zM193 758l-16 34l187 96l27 -52z" />
    <glyph glyph-name="uni1FC0" unicode="&#x1fc0;" horiz-adv-x="361" 
d="M206 673.5q-16 6.5 -39 19.5q-14 10 -24 14.5t-21 4.5q-19 0 -30 -8.5t-26 -31.5l-36 18q37 68 92 68q16 0 31 -6.5t33 -17.5q3 -2 14.5 -8t21 -9.5t18.5 -3.5q15 0 27.5 10t27.5 33l36 -18q-17 -36 -40 -54t-48 -18q-21 1 -37 7.5z" />
    <glyph glyph-name="uni1FC6" unicode="&#x1fc6;" horiz-adv-x="588" 
d="M449.5 492q37.5 -42 37.5 -118v-579l-58 8v563q0 63 -25 92t-74 29q-50 0 -89 -28t-73 -80v-379h-58v355q0 54 -6.5 93t-17.5 76l53 7q16 -39 24 -101q33 49 78 76.5t100 27.5q71 0 108.5 -42zM310 673.5q-16 6.5 -39 19.5q-14 10 -24 14.5t-21 4.5q-19 0 -30 -8.5
t-26 -31.5l-36 18q37 68 92 68q16 0 31 -6.5t33 -17.5q3 -2 14.5 -8t21 -9.5t18.5 -3.5q15 0 27.5 10t27.5 33l36 -18q-17 -36 -40 -54t-48 -18q-21 1 -37 7.5z" />
    <glyph glyph-name="uni1FC8" unicode="&#x1fc8;" horiz-adv-x="512" 
d="M171 635v-255h243v-50h-243v-280h295v-50h-355v685h348l-7 -50h-281zM372 758l-198 78l26 52l188 -96z" />
    <glyph glyph-name="uni1FC9" unicode="&#x1fc9;" horiz-adv-x="512" 
d="M171 635v-255h243v-50h-243v-280h295v-50h-355v685h348l-7 -50h-281zM201 758l-16 34l187 96l27 -52z" />
    <glyph glyph-name="uni1FCA" unicode="&#x1fca;" horiz-adv-x="670" 
d="M171 335v-335h-60v685h60v-299h328v299h60v-685h-60v335h-328zM417 758l-198 78l26 52l188 -96z" />
    <glyph glyph-name="uni1FCB" unicode="&#x1fcb;" horiz-adv-x="670" 
d="M171 335v-335h-60v685h60v-299h328v299h60v-685h-60v335h-328zM247 758l-16 34l187 96l27 -52z" />
    <glyph glyph-name="uni1FD0" unicode="&#x1fd0;" horiz-adv-x="263" 
d="M169.5 66.5q10.5 -18.5 36.5 -29.5l-18 -45q-48 13 -67.5 41.5t-19.5 85.5v404h58v-399q0 -39 10.5 -57.5zM42.5 683q-35.5 30 -42.5 80l40 9q20 -72 90 -72q71 0 91 72l40 -9q-7 -50 -43 -80t-88 -30t-87.5 30z" />
    <glyph glyph-name="uni1FD1" unicode="&#x1fd1;" horiz-adv-x="263" 
d="M169.5 66.5q10.5 -18.5 36.5 -29.5l-18 -45q-48 13 -67.5 41.5t-19.5 85.5v404h58v-399q0 -39 10.5 -57.5zM10 723h241v-47h-241v47z" />
    <glyph glyph-name="uni1FD2" unicode="&#x1fd2;" horiz-adv-x="263" 
d="M221 768l-196 85l27 52l188 -104zM63.5 715q11.5 -11 11.5 -28t-11.5 -28.5t-28.5 -11.5t-28.5 11.5t-11.5 28.5t11.5 28t28.5 11t28.5 -11zM252.5 715q11.5 -11 11.5 -28t-11.5 -28.5t-28.5 -11.5t-28.5 11.5t-11.5 28.5t11.5 28t28.5 11t28.5 -11zM169.5 66.5
q10.5 -18.5 36.5 -29.5l-18 -45q-48 13 -67.5 41.5t-19.5 85.5v404h58v-399q0 -39 10.5 -57.5z" />
    <glyph glyph-name="uni1FD3" unicode="&#x1fd3;" horiz-adv-x="263" 
d="M38 768l-19 33l188 104l27 -52zM63.5 715q11.5 -11 11.5 -28t-11.5 -28.5t-28.5 -11.5t-28.5 11.5t-11.5 28.5t11.5 28t28.5 11t28.5 -11zM252.5 715q11.5 -11 11.5 -28t-11.5 -28.5t-28.5 -11.5t-28.5 11.5t-11.5 28.5t11.5 28t28.5 11t28.5 -11zM169.5 66.5
q10.5 -18.5 36.5 -29.5l-18 -45q-48 13 -67.5 41.5t-19.5 85.5v404h58v-399q0 -39 10.5 -57.5z" />
    <glyph glyph-name="uni1FD6" unicode="&#x1fd6;" horiz-adv-x="263" 
d="M169.5 66.5q10.5 -18.5 36.5 -29.5l-18 -45q-48 13 -67.5 41.5t-19.5 85.5v404h58v-399q0 -39 10.5 -57.5zM156 673.5q-16 6.5 -39 19.5q-14 10 -24 14.5t-21 4.5q-19 0 -30 -8.5t-26 -31.5l-36 18q37 68 92 68q16 0 31 -6.5t33 -17.5q3 -2 14.5 -8t21 -9.5t18.5 -3.5
q15 0 27.5 10t27.5 33l36 -18q-17 -36 -40 -54t-48 -18q-21 1 -37 7.5z" />
    <glyph glyph-name="uni1FD7" unicode="&#x1fd7;" horiz-adv-x="263" 
d="M169.5 66.5q10.5 -18.5 36.5 -29.5l-18 -45q-48 13 -67.5 41.5t-19.5 85.5v404h58v-399q0 -39 10.5 -57.5zM63.5 730.5q11.5 -11.5 11.5 -28.5t-11.5 -28t-28.5 -11t-28.5 11t-11.5 28t11.5 28.5t28.5 11.5t28.5 -11.5zM252.5 730.5q11.5 -11.5 11.5 -28.5t-11.5 -28
t-28.5 -11t-28.5 11t-11.5 28t11.5 28.5t28.5 11.5t28.5 -11.5zM156 801.5q-16 6.5 -39 19.5q-14 10 -24 14.5t-21 4.5q-19 0 -30 -8.5t-26 -31.5l-36 18q37 68 92 68q16 0 31 -6.5t33 -17.5q3 -2 14.5 -8t21 -9.5t18.5 -3.5q15 0 27.5 10t27.5 33l36 -18q-17 -36 -40 -54
t-48 -18q-21 1 -37 7.5z" />
    <glyph glyph-name="uni1FD8" unicode="&#x1fd8;" horiz-adv-x="282" 
d="M111 0v685h60v-685h-60zM54 793.5q-36 28.5 -43 71.5l40 9q10 -29 33 -45.5t57 -16.5t57.5 16.5t33.5 45.5l40 -9q-7 -43 -43.5 -71.5t-87.5 -28.5t-87 28.5z" />
    <glyph glyph-name="uni1FD9" unicode="&#x1fd9;" horiz-adv-x="282" 
d="M111 0v685h60v-685h-60zM21 847h241v-47h-241v47z" />
    <glyph glyph-name="uni1FDA" unicode="&#x1fda;" horiz-adv-x="282" 
d="M111 0v685h60v-685h-60zM224 758l-198 78l26 52l188 -96z" />
    <glyph glyph-name="uni1FDB" unicode="&#x1fdb;" horiz-adv-x="282" 
d="M111 0v685h60v-685h-60zM53 758l-16 34l187 96l27 -52z" />
    <glyph glyph-name="uni1FE0" unicode="&#x1fe0;" horiz-adv-x="564" 
d="M483 260q0 -91 -29.5 -152t-77.5 -90t-106 -29q-75 0 -122 44t-47 126v364h58v-360q0 -63 31 -94t82 -31q63 0 107.5 53.5t44.5 172.5t-26 259h59q26 -150 26 -263zM193.5 683q-35.5 30 -42.5 80l40 9q20 -72 90 -72q71 0 91 72l40 -9q-7 -50 -43 -80t-88 -30t-87.5 30z
" />
    <glyph glyph-name="uni1FE1" unicode="&#x1fe1;" horiz-adv-x="564" 
d="M483 260q0 -91 -29.5 -152t-77.5 -90t-106 -29q-75 0 -122 44t-47 126v364h58v-360q0 -63 31 -94t82 -31q63 0 107.5 53.5t44.5 172.5t-26 259h59q26 -150 26 -263zM161 723h241v-47h-241v47z" />
    <glyph glyph-name="uni1FE2" unicode="&#x1fe2;" horiz-adv-x="564" 
d="M373 768l-195 85l26 52l188 -103zM215.5 715q11.5 -11 11.5 -28t-11.5 -28t-28.5 -11t-28.5 11t-11.5 28t11.5 28t28.5 11t28.5 -11zM404.5 715q11.5 -11 11.5 -28t-11.5 -28t-28.5 -11t-28.5 11t-11.5 28t11.5 28t28.5 11t28.5 -11zM483 260q0 -91 -29.5 -152t-77.5 -90
t-106 -29q-75 0 -122 44t-47 126v364h58v-360q0 -63 31 -94t82 -31q63 0 107.5 53.5t44.5 172.5t-26 259h59q26 -150 26 -263z" />
    <glyph glyph-name="uni1FE3" unicode="&#x1fe3;" horiz-adv-x="564" 
d="M190 768l-18 34l188 103l26 -52zM215.5 715q11.5 -11 11.5 -28t-11.5 -28t-28.5 -11t-28.5 11t-11.5 28t11.5 28t28.5 11t28.5 -11zM404.5 715q11.5 -11 11.5 -28t-11.5 -28t-28.5 -11t-28.5 11t-11.5 28t11.5 28t28.5 11t28.5 -11zM483 260q0 -91 -29.5 -152t-77.5 -90
t-106 -29q-75 0 -122 44t-47 126v364h58v-360q0 -63 31 -94t82 -31q63 0 107.5 53.5t44.5 172.5t-26 259h59q26 -150 26 -263z" />
    <glyph glyph-name="uni1FE6" unicode="&#x1fe6;" horiz-adv-x="564" 
d="M483 260q0 -91 -29.5 -152t-77.5 -90t-106 -29q-75 0 -122 44t-47 126v364h58v-360q0 -63 31 -94t82 -31q63 0 107.5 53.5t44.5 172.5t-26 259h59q26 -150 26 -263zM307 673.5q-16 6.5 -39 19.5q-14 10 -24 14.5t-21 4.5q-19 0 -30 -8.5t-26 -31.5l-36 18q37 68 92 68
q16 0 31 -6.5t33 -17.5q3 -2 14.5 -8t21 -9.5t18.5 -3.5q15 0 27.5 10t27.5 33l36 -18q-17 -36 -40 -54t-48 -18q-21 1 -37 7.5z" />
    <glyph glyph-name="uni1FE7" unicode="&#x1fe7;" horiz-adv-x="564" 
d="M483 260q0 -91 -29.5 -152t-77.5 -90t-106 -29q-75 0 -122 44t-47 126v364h58v-360q0 -63 31 -94t82 -31q63 0 107.5 53.5t44.5 172.5t-26 259h59q26 -150 26 -263zM215.5 730.5q11.5 -11.5 11.5 -28.5t-11.5 -28t-28.5 -11t-28.5 11t-11.5 28t11.5 28.5t28.5 11.5
t28.5 -11.5zM404.5 730.5q11.5 -11.5 11.5 -28.5t-11.5 -28t-28.5 -11t-28.5 11t-11.5 28t11.5 28.5t28.5 11.5t28.5 -11.5zM307 801.5q-16 6.5 -39 19.5q-14 10 -24 14.5t-21 4.5q-19 0 -30 -8.5t-26 -31.5l-36 18q37 68 92 68q16 0 31 -6.5t33 -17.5q3 -2 14.5 -8t21 -9.5
t18.5 -3.5q15 0 27.5 10t27.5 33l36 -18q-17 -36 -40 -54t-48 -18q-21 1 -37 7.5z" />
    <glyph glyph-name="uni1FE8" unicode="&#x1fe8;" horiz-adv-x="523" 
d="M292 0h-60v267l-219 418h67l184 -365l181 365h64l-217 -417v-268zM173 793.5q-36 28.5 -43 71.5l40 9q10 -29 33 -45.5t57 -16.5t57.5 16.5t33.5 45.5l40 -9q-7 -43 -43.5 -71.5t-87.5 -28.5t-87 28.5z" />
    <glyph glyph-name="uni1FE9" unicode="&#x1fe9;" horiz-adv-x="523" 
d="M292 0h-60v267l-219 418h67l184 -365l181 365h64l-217 -417v-268zM140 847h241v-47h-241v47z" />
    <glyph glyph-name="uni1FEA" unicode="&#x1fea;" horiz-adv-x="523" 
d="M292 0h-60v267l-219 418h67l184 -365l181 365h64l-217 -417v-268zM344 758l-198 78l26 52l188 -96z" />
    <glyph glyph-name="uni1FEB" unicode="&#x1feb;" horiz-adv-x="523" 
d="M292 0h-60v267l-219 418h67l184 -365l181 365h64l-217 -417v-268zM173 758l-16 34l187 96l27 -52z" />
    <glyph glyph-name="uni1FF6" unicode="&#x1ff6;" horiz-adv-x="774" 
d="M698 237q0 -131 -50 -189.5t-126 -58.5q-55 0 -91 30.5t-44 93.5q-21 -124 -139 -124q-78 0 -125 61t-47 188q0 84 16 151.5t42 133.5h58q-29 -75 -43 -143t-14 -138q0 -204 119 -204q48 0 76 32t28 109v174l57 8v-182q0 -75 27.5 -108t73.5 -33q123 0 123 198
q0 144 -57 287h59q57 -139 57 -286zM414 673.5q-16 6.5 -39 19.5q-14 10 -24 14.5t-21 4.5q-19 0 -30 -8.5t-26 -31.5l-36 18q37 68 92 68q16 0 31 -6.5t33 -17.5q3 -2 14.5 -8t21 -9.5t18.5 -3.5q15 0 27.5 10t27.5 33l36 -18q-17 -36 -40 -54t-48 -18q-21 1 -37 7.5z" />
    <glyph glyph-name="uni1FF8" unicode="&#x1ff8;" horiz-adv-x="691" 
d="M492 655.5q63 -40.5 98 -120.5t35 -193q0 -111 -34.5 -190.5t-97.5 -121t-148 -41.5q-83 0 -146 41t-98 120t-35 191q0 111 35 191t98.5 122t145.5 42q84 0 147 -40.5zM187 568.5q-58 -76.5 -58 -227.5q0 -149 58.5 -225t157.5 -76q103 0 160 75.5t57 226.5
q0 152 -57.5 227.5t-159.5 75.5q-100 0 -158 -76.5zM422 758l-198 78l26 52l188 -96z" />
    <glyph glyph-name="uni1FF9" unicode="&#x1ff9;" horiz-adv-x="691" 
d="M492 655.5q63 -40.5 98 -120.5t35 -193q0 -111 -34.5 -190.5t-97.5 -121t-148 -41.5q-83 0 -146 41t-98 120t-35 191q0 111 35 191t98.5 122t145.5 42q84 0 147 -40.5zM187 568.5q-58 -76.5 -58 -227.5q0 -149 58.5 -225t157.5 -76q103 0 160 75.5t57 226.5
q0 152 -57.5 227.5t-159.5 75.5q-100 0 -158 -76.5zM252 758l-16 34l187 96l27 -52z" />
    <glyph glyph-name="uni1FFA" unicode="&#x1ffa;" horiz-adv-x="691" 
d="M493 655.5q63 -40.5 97.5 -119t34.5 -190.5q0 -117 -34.5 -186t-109.5 -107h122v-53h-199v52q80 29 119 100t39 194q0 149 -57.5 224t-159.5 75q-100 0 -158 -75.5t-58 -224.5q0 -123 39 -192t118 -101v-52h-198v53h119q-73 38 -107 107t-34 185q0 109 35 188t98.5 121
t145.5 42q85 0 148 -40.5zM428 758l-198 78l26 52l188 -96z" />
    <glyph glyph-name="uni1FFB" unicode="&#x1ffb;" horiz-adv-x="691" 
d="M493 655.5q63 -40.5 97.5 -119t34.5 -190.5q0 -117 -34.5 -186t-109.5 -107h122v-53h-199v52q80 29 119 100t39 194q0 149 -57.5 224t-159.5 75q-100 0 -158 -75.5t-58 -224.5q0 -123 39 -192t118 -101v-52h-198v53h119q-73 38 -107 107t-34 185q0 109 35 188t98.5 121
t145.5 42q85 0 148 -40.5zM257 758l-16 34l187 96l27 -52z" />
    <glyph glyph-name="uni2007" unicode="&#x2007;" 
 />
    <glyph glyph-name="uni2008" unicode="&#x2008;" horiz-adv-x="590" 
 />
    <glyph glyph-name="zerowidthspace" unicode="&#x200b;" horiz-adv-x="0" 
 />
    <glyph glyph-name="uni200C" unicode="&#x200c;" horiz-adv-x="0" 
d="M-8 -150v900h16v-900h-16z" />
    <glyph glyph-name="uni200D" unicode="&#x200d;" horiz-adv-x="0" 
d="M11 750l57 -57l-11 -11l-49 49v-881h-16v881l-49 -49l-11 11l57 57l-54 54l11 11l54 -54l54 54l11 -11z" />
    <glyph glyph-name="uni200E" unicode="&#x200e;" horiz-adv-x="0" 
d="M73 678l-13 9l43 55h-95v-892h-16v908h111l-43 55l13 9l55 -72z" />
    <glyph glyph-name="uni200F" unicode="&#x200f;" horiz-adv-x="0" 
d="M-103 758h111v-908h-16v892h-95l43 -55l-13 -9l-55 72l55 72l13 -9z" />
    <glyph glyph-name="figuredash" unicode="&#x2012;" 
d="M526 358v-50h-492v50h492z" />
    <glyph glyph-name="endash" unicode="&#x2013;" horiz-adv-x="520" 
d="M480 338v-50h-440v50h440z" />
    <glyph glyph-name="emdash" unicode="&#x2014;" horiz-adv-x="783" 
d="M743 338v-50h-703v50h703z" />
    <glyph glyph-name="uni2015" unicode="&#x2015;" horiz-adv-x="520" 
d="M480 338v-50h-440v50h440z" />
    <glyph glyph-name="quoteleft" unicode="&#x2018;" horiz-adv-x="219" 
d="M70.5 539.5q-12.5 12.5 -12.5 31.5q0 9 3 18.5t11 27.5l57 124h39l-38 -134q20 -12 20 -36q0 -18 -13 -31t-33 -13q-21 0 -33.5 12.5z" />
    <glyph glyph-name="quoteright" unicode="&#x2019;" horiz-adv-x="219" 
d="M145.5 728.5q12.5 -12.5 12.5 -31.5q0 -9 -3 -18.5t-11 -27.5l-57 -124h-39l38 134q-20 12 -20 36q0 18 13 31t33 13q21 0 33.5 -12.5z" />
    <glyph glyph-name="quotesinglbase" unicode="&#x201a;" horiz-adv-x="219" 
d="M145.5 62.5q12.5 -12.5 12.5 -31.5q0 -9 -3 -18.5t-11 -27.5l-57 -124h-39l38 134q-20 12 -20 36q0 18 13 31t33 13q21 0 33.5 -12.5z" />
    <glyph glyph-name="quotedblleft" unicode="&#x201c;" horiz-adv-x="371" 
d="M61.5 540.5q-12.5 12.5 -12.5 31.5q0 18 13 46l57 124h39l-38 -134q10 -6 15 -15.5t5 -20.5q0 -19 -13 -31.5t-33 -12.5t-32.5 12.5zM213.5 540.5q-12.5 12.5 -12.5 31.5q0 18 13 46l57 124h39l-38 -134q10 -6 15 -15.5t5 -20.5q0 -19 -13 -31.5t-33 -12.5t-32.5 12.5z
" />
    <glyph glyph-name="quotedblright" unicode="&#x201d;" horiz-adv-x="371" 
d="M145.5 729.5q12.5 -12.5 12.5 -31.5q0 -17 -14 -46l-56 -124h-40l38 133q-20 15 -20 37q0 18 13 31t33 13q21 0 33.5 -12.5zM297.5 729.5q12.5 -12.5 12.5 -31.5q0 -17 -14 -46l-56 -124h-40l38 133q-20 15 -20 37q0 18 13 31t33 13q21 0 33.5 -12.5z" />
    <glyph glyph-name="quotedblbase" unicode="&#x201e;" horiz-adv-x="371" 
d="M145.5 62.5q12.5 -12.5 12.5 -31.5q0 -9 -3 -18.5t-11 -27.5l-57 -124h-39l38 134q-20 12 -20 36q0 18 13 31t33 13q21 0 33.5 -12.5zM297.5 62.5q12.5 -12.5 12.5 -31.5q0 -9 -3 -18.5t-11 -27.5l-57 -124h-39l38 134q-20 12 -20 36q0 18 13 31t33 13q21 0 33.5 -12.5z
" />
    <glyph glyph-name="dagger" unicode="&#x2020;" horiz-adv-x="506" 
d="M455 512v-51h-174v-461h-56v461h-174v51h174v153h56v-153h174z" />
    <glyph glyph-name="daggerdbl" unicode="&#x2021;" horiz-adv-x="509" 
d="M283 174v-174h-57v174h-175v49h175v239h-174v50h174v153h57v-153h174v-50h-174v-239h175v-49h-175z" />
    <glyph glyph-name="bullet" unicode="&#x2022;" horiz-adv-x="287" 
d="M197 398.5q21 -21.5 21 -53.5q0 -31 -21 -52t-54 -21q-32 0 -53 21t-21 53t21 53t53 21q33 0 54 -21.5z" />
    <glyph glyph-name="ellipsis" unicode="&#x2026;" horiz-adv-x="629" 
d="M348.5 70.5q13.5 -13.5 13.5 -33.5q0 -21 -13.5 -34.5t-34.5 -13.5q-20 0 -34 14t-14 34t14 33.5t34 13.5q21 0 34.5 -13.5zM559.5 70.5q13.5 -13.5 13.5 -33.5q0 -21 -13.5 -34.5t-34.5 -13.5q-20 0 -34 14t-14 34t14 33.5t34 13.5q21 0 34.5 -13.5zM137.5 70.5
q13.5 -13.5 13.5 -33.5q0 -21 -13.5 -34.5t-34.5 -13.5q-20 0 -34 14t-14 34t14 33.5t34 13.5q21 0 34.5 -13.5z" />
    <glyph glyph-name="perthousand" unicode="&#x2030;" horiz-adv-x="1143" 
d="M189 -24l-42 28l463 699l43 -27zM311 632q41 -44 41 -118t-40.5 -118.5t-108.5 -44.5q-67 0 -108.5 44t-41.5 118t41 118.5t109 44.5q67 0 108 -44zM130 600q-23 -34 -23 -87q0 -52 23 -86t73 -34t72.5 34t22.5 87q0 52 -22.5 86t-72.5 34t-73 -34zM698.5 270
q41.5 -44 41.5 -117q0 -75 -41 -119.5t-109 -44.5q-66 0 -107.5 44.5t-41.5 117.5q0 75 40.5 119t108.5 44q67 0 108.5 -44zM1048.5 270q41.5 -44 41.5 -117q0 -75 -41 -119.5t-109 -44.5q-67 0 -108 44t-41 118q0 75 40.5 119t108.5 44q67 0 108.5 -44zM518 238
q-23 -34 -23 -87q0 -52 23 -86t72 -34q50 0 73 34t23 88q0 51 -23 85t-73 34q-49 0 -72 -34zM868 238q-23 -34 -23 -87q0 -52 23 -86t72 -34q50 0 73 34t23 88q0 51 -23 85t-73 34q-49 0 -72 -34z" />
    <glyph glyph-name="guilsinglleft" unicode="&#x2039;" horiz-adv-x="342" 
d="M134 288l137 -208l-36 -24l-164 212v39l164 213l36 -25z" />
    <glyph glyph-name="guilsinglright" unicode="&#x203a;" horiz-adv-x="342" 
d="M271 268l-164 -212l-36 24l138 208l-138 207l36 25l164 -213v-39z" />
    <glyph glyph-name="fraction" unicode="&#x2044;" horiz-adv-x="114" 
d="M-126 -71l-41 20l408 798l40 -19z" />
    <glyph glyph-name="zerosuperior" unicode="&#x2070;" horiz-adv-x="400" 
d="M304.5 688.5q36.5 -54.5 36.5 -160.5q0 -104 -36.5 -159t-104.5 -55t-104.5 55.5t-36.5 159.5q0 105 36.5 159.5t104.5 54.5t104.5 -54.5zM134.5 660.5q-22.5 -41.5 -22.5 -131.5t22.5 -131.5t65.5 -41.5t65.5 41t22.5 131q0 91 -22 132.5t-66 41.5q-43 0 -65.5 -41.5z
" />
    <glyph glyph-name="foursuperior" unicode="&#x2074;" horiz-adv-x="400" 
d="M291 425v-103h-50v103h-189v37l130 281l44 -17l-120 -259h135l5 115h45v-115h56v-42h-56z" />
    </font>
</defs>
</svg>
