<?xml version="1.0" standalone="no"?>
<!DOCTYPE svg PUBLIC "-//W3C//DTD SVG 1.1//EN" "http://www.w3.org/Graphics/SVG/1.1/DTD/svg11.dtd" >
<svg xmlns="http://www.w3.org/2000/svg" xmlns:xlink="http://www.w3.org/1999/xlink" version="1.1">
<metadata>
Created by FontForge 20161013 at Fri Nov 14 21:17:48 2014
 By ,,,
Copyright (c) 2014 by Rene' Bieder. All rights reserved.
</metadata>
<defs>
<font id="GalanoGrotesque-Light" horiz-adv-x="610" >
  <font-face 
    font-family="GalanoGrotesque-Light"
    font-weight="400"
    font-stretch="normal"
    units-per-em="1000"
    panose-1="0 0 4 0 0 0 0 0 0 0"
    ascent="795"
    descent="-205"
    x-height="489"
    cap-height="670"
    bbox="-173 -196 1183 936"
    underline-thickness="50"
    underline-position="-150"
    unicode-range="U+0020-FB02"
  />
<missing-glyph horiz-adv-x="803" 
d="M402 683q144 0 245.5 -99.5t101.5 -250.5q0 -149 -101.5 -248.5t-245.5 -99.5q-145 0 -246.5 99.5t-101.5 248.5q0 151 101.5 250.5t246.5 99.5zM402 656q-133 0 -225.5 -91.5t-92.5 -230.5q0 -138 93 -229.5t225 -91.5t224.5 91.5t92.5 229.5q0 139 -92.5 230.5
t-224.5 91.5zM532 401q0 -48 -33.5 -79t-85.5 -35v-50h-32v80h19q42 0 69.5 23t27.5 61t-25.5 61.5t-68.5 23.5q-45 0 -71.5 -27.5t-26.5 -72.5l-34 5q0 55 37 90.5t95 35.5q57 0 93 -32t36 -84zM397 192q10 0 17.5 -7t7.5 -17t-7.5 -17.5t-17.5 -7.5t-17.5 7.5t-7.5 17.5
t7.5 17t17.5 7z" />
    <glyph glyph-name="fi" unicode="fi" horiz-adv-x="607" 
d="M501 489v-489h-48v447h-294v-447h-49v447h-90v42h90v87q0 75 42 118.5t114 43.5q52 0 93 -27l-16 -38q-33 21 -74 21q-51 0 -80.5 -32t-29.5 -86v-87h342zM477 676q16 0 27 -11t11 -27t-11 -26.5t-27 -10.5q-17 0 -28 10.5t-11 26.5t11 27t28 11z" />
    <glyph glyph-name="fl" unicode="fl" horiz-adv-x="591" 
d="M159 489h193v-42h-193v-447h-49v447h-90v42h90v87q0 74 41.5 118t113.5 44q40 0 77 -16l-15 -41q-26 13 -59 13q-51 0 -80 -32t-29 -86v-87zM495 720v-720h-49v720h49z" />
    <glyph glyph-name=".notdef" horiz-adv-x="803" 
d="M402 683q144 0 245.5 -99.5t101.5 -250.5q0 -149 -101.5 -248.5t-245.5 -99.5q-145 0 -246.5 99.5t-101.5 248.5q0 151 101.5 250.5t246.5 99.5zM402 656q-133 0 -225.5 -91.5t-92.5 -230.5q0 -138 93 -229.5t225 -91.5t224.5 91.5t92.5 229.5q0 139 -92.5 230.5
t-224.5 91.5zM532 401q0 -48 -33.5 -79t-85.5 -35v-50h-32v80h19q42 0 69.5 23t27.5 61t-25.5 61.5t-68.5 23.5q-45 0 -71.5 -27.5t-26.5 -72.5l-34 5q0 55 37 90.5t95 35.5q57 0 93 -32t36 -84zM397 192q10 0 17.5 -7t7.5 -17t-7.5 -17.5t-17.5 -7.5t-17.5 7.5t-7.5 17.5
t7.5 17t17.5 7z" />
    <glyph glyph-name=".null" horiz-adv-x="0" 
 />
    <glyph glyph-name="nonmarkingreturn" horiz-adv-x="333" 
 />
    <glyph glyph-name="space" unicode=" " horiz-adv-x="256" 
 />
    <glyph glyph-name="exclam" unicode="!" horiz-adv-x="260" 
d="M156 670v-31l-1 -450h-49l-2 450v31h52zM130 72q16 0 27 -11t11 -26q0 -17 -11 -27.5t-27 -10.5q-17 0 -28 11t-11 27q0 15 11.5 26t27.5 11z" />
    <glyph glyph-name="quotedbl" unicode="&#x22;" horiz-adv-x="294" 
d="M58 402v268h49v-268h-49zM188 402v268h49v-268h-49z" />
    <glyph glyph-name="numbersign" unicode="#" horiz-adv-x="672" 
d="M517 437l-55 -215h109l-11 -43h-109l-46 -179h-45l46 179h-217l-46 -179h-46l46 179h-109l12 43h108l55 215h-109l12 42h108l49 191h45l-49 -191h218l49 191h45l-49 -191h109l-12 -42h-108zM473 437h-218l-55 -215h217z" />
    <glyph glyph-name="dollar" unicode="$" horiz-adv-x="580" 
d="M524 193q0 -79 -57 -127t-151 -51v-115h-44v117q-89 8 -149.5 59t-67.5 128l50 11q7 -65 53 -105.5t115 -48.5v260l-54 13q-144 31 -144 148q0 75 54.5 121.5t142.5 51.5v115h44v-116q83 -7 135.5 -54.5t60.5 -116.5l-48 -10q-7 57 -47.5 93.5t-101.5 43.5v-250l58 -14
q151 -33 151 -153zM273 369v243q-65 -4 -105.5 -38.5t-40.5 -89.5q0 -46 28 -69.5t81 -36.5zM315 311v-252q73 2 116.5 38t43.5 94q0 48 -29 72t-84 37z" />
    <glyph glyph-name="percent" unicode="%" horiz-adv-x="853" 
d="M218 681q67 0 114.5 -43.5t47.5 -114.5q0 -68 -48 -112.5t-114 -44.5t-114.5 44.5t-48.5 112.5q0 71 48 114.5t115 43.5zM147 0l506 670h39l-506 -670h-39zM218 646q-50 0 -87.5 -34.5t-37.5 -88.5q0 -53 37.5 -86.5t87.5 -33.5q49 0 86.5 33.5t37.5 86.5q0 54 -37 88.5
t-87 34.5zM636 304q67 0 114.5 -43.5t47.5 -114.5q0 -69 -48 -113t-114 -44t-114.5 44.5t-48.5 112.5q0 71 48 114.5t115 43.5zM636 269q-50 0 -87.5 -34.5t-37.5 -88.5q0 -53 37.5 -86.5t87.5 -33.5q49 0 86.5 33.5t37.5 86.5q0 54 -37 88.5t-87 34.5z" />
    <glyph glyph-name="ampersand" unicode="&#x26;" horiz-adv-x="717" 
d="M661 -15l-128 105q-81 -101 -224 -101q-108 0 -173.5 53t-65.5 140q0 63 37.5 112t97.5 76q-60 68 -60 141q0 75 51.5 122.5t132.5 47.5q77 0 127 -44t59 -124l-45 -10q-7 70 -45 103t-97 33q-60 0 -97.5 -35.5t-37.5 -92.5q0 -56 39.5 -105t135.5 -125l155 -127
q33 61 33 142v40h44v-40q0 -98 -42 -170l131 -107zM309 31q118 0 190 87l-167 137q-55 43 -98 84q-116 -52 -116 -157q0 -68 52.5 -109.5t138.5 -41.5z" />
    <glyph glyph-name="quotesingle" unicode="'" horiz-adv-x="164" 
d="M58 402v268h49v-268h-49z" />
    <glyph glyph-name="parenleft" unicode="(" horiz-adv-x="346" 
d="M115 334q0 -110 38 -203.5t130 -181.5l-33 -31q-187 171 -187 416q0 246 187 417l33 -32q-92 -87 -130 -180.5t-38 -204.5z" />
    <glyph glyph-name="parenright" unicode=")" horiz-adv-x="346" 
d="M63 719l33 32q187 -171 187 -417q0 -245 -187 -416l-33 31q92 88 130 181.5t38 203.5q0 111 -38 204.5t-130 180.5z" />
    <glyph glyph-name="asterisk" unicode="*" horiz-adv-x="416" 
d="M244 548l127 -72l-18 -30l-126 71v-142h-38v142l-125 -71l-18 30l127 72l-127 72l18 31l125 -71v140h38v-141l126 72l18 -31z" />
    <glyph glyph-name="plus" unicode="+" horiz-adv-x="580" 
d="M505 283h-193v-194h-44v194h-193v44h193v194h44v-194h193v-44z" />
    <glyph glyph-name="comma" unicode="," horiz-adv-x="189" 
d="M57 -132h-39l69 261h59v-3z" />
    <glyph glyph-name="hyphen" unicode="-" horiz-adv-x="441" 
d="M381 233h-321v44h321v-44z" />
    <glyph glyph-name="period" unicode="." horiz-adv-x="187" 
d="M94 72q16 0 27 -11t11 -26q0 -17 -11 -27.5t-27 -10.5q-17 0 -28 11t-11 27q0 15 11.5 26t27.5 11z" />
    <glyph glyph-name="slash" unicode="/" horiz-adv-x="343" 
d="M337 740l-288 -812h-43l288 812h43z" />
    <glyph glyph-name="zero" unicode="0" horiz-adv-x="665" 
d="M332 681q122 0 197.5 -95.5t75.5 -250.5t-75.5 -250.5t-197.5 -95.5t-197 95.5t-75 250.5t75 250.5t197 95.5zM332 36q100 0 161 82t61 217t-61 217.5t-161 82.5t-160.5 -82.5t-60.5 -217.5q0 -134 60.5 -216.5t160.5 -82.5z" />
    <glyph glyph-name="one" unicode="1" horiz-adv-x="348" 
d="M254 670v-670h-50v607l-186 -107v49l205 121h31z" />
    <glyph glyph-name="two" unicode="2" horiz-adv-x="510" 
d="M479 46v-46h-448v32l245 223q81 72 113 117t32 106q0 71 -46.5 115t-121.5 44q-78 0 -126 -48t-49 -130l-47 8q2 97 63 155.5t159 58.5q97 0 157 -55.5t60 -146.5q0 -72 -36 -124t-127 -134l-193 -175h365z" />
    <glyph glyph-name="three" unicode="3" horiz-adv-x="593" 
d="M396 345q63 -13 98 -54t35 -103q0 -89 -62 -144t-162 -55q-106 0 -171.5 60.5t-70.5 159.5l48 9q5 -84 56.5 -134.5t137.5 -50.5q79 0 128 42.5t49 111.5q0 64 -46 100.5t-127 36.5h-62v41h60q73 0 117 35t44 94q0 64 -46 103.5t-122 39.5q-79 0 -127.5 -46.5
t-53.5 -126.5l-47 9q6 94 67.5 151t160.5 57q97 0 156 -51.5t59 -135.5q0 -57 -31.5 -96t-87.5 -53z" />
    <glyph glyph-name="four" unicode="4" horiz-adv-x="621" 
d="M589 174h-116v-174h-49v174h-381v51l370 445h60v-453h116v-43zM424 217v394l-326 -394h326z" />
    <glyph glyph-name="five" unicode="5" horiz-adv-x="559" 
d="M138 390h157q101 0 159 -49t58 -143t-63.5 -151.5t-166.5 -57.5q-105 0 -171.5 61.5t-67.5 165.5l50 10q0 -88 52.5 -140t137.5 -52q81 0 130.5 45t49.5 118q0 74 -45.5 111t-125.5 37h-204l17 325h383v-46h-337z" />
    <glyph glyph-name="six" unicode="6" horiz-adv-x="608" 
d="M322 433q102 0 164 -62.5t62 -158.5q0 -97 -63 -160t-166 -63q-125 0 -192 85t-67 239q0 203 92 298q68 70 172 70q76 0 131 -37t73 -104l-49 -9q-14 52 -55.5 79t-101.5 27q-84 0 -138 -59q-81 -90 -75 -268v-15q21 61 80 99.5t133 38.5zM318 35q81 0 130.5 51.5
t49.5 126.5q0 76 -50 126t-130 50q-84 0 -135.5 -53t-51.5 -126q0 -76 54 -125.5t133 -49.5z" />
    <glyph glyph-name="seven" unicode="7" horiz-adv-x="490" 
d="M474 670v-33l-278 -637h-57l278 624h-391v46h448z" />
    <glyph glyph-name="eight" unicode="8" horiz-adv-x="583" 
d="M375 345q81 -16 120.5 -64t39.5 -107q0 -83 -66.5 -134t-175.5 -51q-110 0 -177 51t-67 134q0 60 39.5 107t120.5 64q-72 17 -107 61t-35 102q0 78 61.5 125.5t164.5 47.5q101 0 162.5 -47.5t61.5 -125.5q0 -57 -34.5 -102t-107.5 -61zM116 505q0 -60 48 -97.5t128 -37.5
q81 0 128.5 38t47.5 97q0 60 -48.5 97t-126.5 37q-79 0 -128 -37t-49 -97zM292 34q84 0 136 39t52 104q0 62 -50.5 102.5t-136.5 40.5t-137.5 -40.5t-51.5 -103.5q0 -65 52 -103.5t136 -38.5z" />
    <glyph glyph-name="nine" unicode="9" horiz-adv-x="608" 
d="M290 681q124 0 191 -85t67 -239q0 -203 -91 -298q-68 -70 -172 -70q-76 0 -131 37t-74 104l49 9q15 -52 56.5 -78.5t101.5 -26.5q84 0 137 58q80 89 76 268l-1 16q-20 -62 -79 -100t-133 -38q-103 0 -165 62t-62 158q0 97 63.5 160t166.5 63zM290 281q84 0 135.5 53
t51.5 126q0 76 -53.5 125.5t-133.5 49.5t-130 -51.5t-50 -126.5t50 -125.5t130 -50.5z" />
    <glyph glyph-name="colon" unicode=":" horiz-adv-x="187" 
d="M94 450q16 0 27 -11t11 -26q0 -16 -10.5 -26.5t-27.5 -10.5t-28 10.5t-11 26.5q0 15 11.5 26t27.5 11zM94 72q16 0 27 -11t11 -26q0 -17 -11 -27.5t-27 -10.5q-17 0 -28 11t-11 27q0 15 11.5 26t27.5 11z" />
    <glyph glyph-name="semicolon" unicode=";" horiz-adv-x="212" 
d="M118 450q16 0 27.5 -11t11.5 -26q0 -16 -11 -26.5t-28 -10.5t-27.5 10.5t-10.5 26.5q0 15 11 26t27 11zM57 -132h-39l69 261h59v-3z" />
    <glyph glyph-name="less" unicode="&#x3c;" horiz-adv-x="430" 
d="M391 121l-360 168v44l360 168v-52l-298 -138l298 -139v-51z" />
    <glyph glyph-name="equal" unicode="=" horiz-adv-x="580" 
d="M505 387h-430v44h430v-44zM505 203h-430v43h430v-43z" />
    <glyph glyph-name="greater" unicode="&#x3e;" horiz-adv-x="430" 
d="M338 311l-298 138v52l360 -168v-44l-360 -168v51z" />
    <glyph glyph-name="question" unicode="?" horiz-adv-x="516" 
d="M262 681q98 0 158 -56t60 -148q0 -84 -58 -138.5t-148 -59.5v-88h-47v128h28q75 0 126 44t51 114q0 72 -47 116t-123 44q-78 0 -126.5 -49.5t-50.5 -129.5l-47 9q2 94 63.5 154t160.5 60zM250 72q16 0 27.5 -11t11.5 -26q0 -16 -11 -27t-28 -11q-16 0 -27 10.5t-11 27.5
q0 15 11 26t27 11z" />
    <glyph glyph-name="at" unicode="@" horiz-adv-x="967" 
d="M486 681q174 0 291.5 -109t117.5 -276q0 -59 -14.5 -108.5t-51 -84.5t-90.5 -35q-50 0 -81 25.5t-33 69.5q-53 -90 -161 -90q-83 0 -140 57t-57 147q0 91 57 148t140 57q52 0 94 -24t67 -67v81h37v-301q0 -32 22 -51.5t57 -19.5q58 0 87.5 57.5t29.5 137.5
q0 154 -107 254t-265 100q-162 0 -269.5 -104.5t-107.5 -262.5q0 -157 106 -262.5t257 -105.5q60 0 125 17.5t111 48.5l19 -31q-47 -32 -118 -50.5t-136 -18.5q-167 0 -283.5 114t-116.5 287t117.5 286.5t295.5 113.5zM468 109q66 0 111.5 47t45.5 122t-45.5 120.5
t-111.5 45.5q-67 0 -114 -46t-47 -120q0 -76 47 -122.5t114 -46.5z" />
    <glyph glyph-name="A" unicode="A" horiz-adv-x="685" 
d="M670 0h-54l-82 183h-382l-83 -183h-54l305 670h45zM513 229l-170 377l-170 -377h340z" />
    <glyph glyph-name="B" unicode="B" horiz-adv-x="673" 
d="M473 342v-2q65 -7 104.5 -50t39.5 -110q0 -80 -55 -130t-149 -50h-317v670h298q94 0 147 -47t53 -125q0 -62 -35 -105t-86 -51zM147 626v-267h258q63 0 102 38t39 99q0 59 -41.5 94.5t-114.5 35.5h-243zM147 44h262q71 0 114 38.5t43 100.5t-43.5 98t-114.5 36h-261v-273
z" />
    <glyph glyph-name="C" unicode="C" horiz-adv-x="785" 
d="M408 36q94 0 164.5 46t100.5 125l49 -12q-34 -95 -118 -150.5t-196 -55.5q-145 0 -245 100.5t-100 245.5t100 245.5t245 100.5q112 0 196 -55t118 -148l-48 -15q-29 79 -100 125t-166 46q-124 0 -209.5 -86.5t-85.5 -212.5t85.5 -212.5t209.5 -86.5z" />
    <glyph glyph-name="D" unicode="D" horiz-adv-x="741" 
d="M96 670h210q175 0 273.5 -95.5t98.5 -239.5t-98.5 -239.5t-273.5 -95.5h-210v670zM147 46h158q153 0 238 82.5t85 206.5t-85 206.5t-238 82.5h-158v-578z" />
    <glyph glyph-name="E" unicode="E" horiz-adv-x="639" 
d="M147 624v-265h399v-45h-399v-268h429v-46h-480v670h480v-46h-429z" />
    <glyph glyph-name="F" unicode="F" horiz-adv-x="588" 
d="M147 624v-268h387v-46h-387v-310h-51v670h470v-46h-419z" />
    <glyph glyph-name="G" unicode="G" horiz-adv-x="805" 
d="M368 357h373q1 -8 1 -22q0 -147 -93.5 -246.5t-240.5 -99.5q-145 0 -245 100t-100 246t99.5 246t244.5 100q110 0 193 -50.5t119 -138.5l-45 -17q-34 75 -104 117t-163 42q-124 0 -208.5 -86.5t-84.5 -212.5t85.5 -212.5t209.5 -86.5q120 0 198 78.5t86 196.5h-325v46z
" />
    <glyph glyph-name="H" unicode="H" horiz-adv-x="737" 
d="M641 670v-670h-50v315h-444v-315h-51v670h51v-309h444v309h50z" />
    <glyph glyph-name="I" unicode="I" horiz-adv-x="243" 
d="M147 0h-51v670h51v-670z" />
    <glyph glyph-name="J" unicode="J" horiz-adv-x="595" 
d="M507 670v-423q0 -115 -66.5 -186.5t-174.5 -71.5q-97 0 -161.5 59t-76.5 155l48 11q10 -81 60.5 -130t129.5 -49q86 0 138.5 59t52.5 153v423h50z" />
    <glyph glyph-name="K" unicode="K" horiz-adv-x="671" 
d="M633 0h-70l-381 311h-35v-311h-51v670h51v-313h32l366 313h65l-389 -336z" />
    <glyph glyph-name="L" unicode="L" horiz-adv-x="583" 
d="M551 46v-46h-455v670h51v-624h404z" />
    <glyph glyph-name="M" unicode="M" horiz-adv-x="903" 
d="M807 670v-670h-49v555l-288 -555h-36l-289 555v-555h-49v670h45l311 -596l311 596h44z" />
    <glyph glyph-name="N" unicode="N" horiz-adv-x="760" 
d="M663 670v-670h-45l-471 583v-583h-51v670h45l472 -587v587h50z" />
    <glyph glyph-name="O" unicode="O" horiz-adv-x="811" 
d="M406 681q144 0 243 -100.5t99 -245.5q0 -146 -99 -246t-243 -100q-145 0 -244 100t-99 246q0 145 99.5 245.5t243.5 100.5zM406 36q123 0 207.5 86t84.5 213q0 126 -84.5 212.5t-207.5 86.5q-124 0 -208.5 -86.5t-84.5 -212.5q0 -127 84.5 -213t208.5 -86z" />
    <glyph glyph-name="P" unicode="P" horiz-adv-x="643" 
d="M96 670h283q102 0 164 -55.5t62 -143.5q0 -89 -62 -144.5t-164 -55.5h-232v-271h-51v670zM147 317h232q79 0 127 43t48 111t-48 110.5t-127 42.5h-232v-307z" />
    <glyph glyph-name="Q" unicode="Q" horiz-adv-x="811" 
d="M717 -159l-155 185q-72 -37 -156 -37q-145 0 -244 100t-99 246q0 145 99.5 245.5t243.5 100.5t243 -100.5t99 -245.5q0 -87 -37.5 -161t-103.5 -121l149 -177zM113 335q0 -127 84.5 -213t208.5 -86q123 0 207.5 86t84.5 213q0 126 -84.5 212.5t-207.5 86.5
q-124 0 -208.5 -86.5t-84.5 -212.5z" />
    <glyph glyph-name="R" unicode="R" horiz-adv-x="668" 
d="M636 0h-66l-276 308h-147v-308h-51v670h305q94 0 151 -49.5t57 -131.5t-57 -131.5t-151 -49.5h-43zM147 353h254q71 0 114.5 37.5t43.5 98.5t-43.5 98t-114.5 37h-254v-271z" />
    <glyph glyph-name="S" unicode="S" horiz-adv-x="619" 
d="M308 681q98 0 162.5 -49t81.5 -130l-50 -12q-13 67 -65 107t-131 40q-76 0 -124.5 -38t-48.5 -102q0 -51 30.5 -77.5t88.5 -39.5l147 -35q35 -7 61.5 -18t51 -30t38 -48.5t13.5 -68.5q0 -87 -65.5 -139t-173.5 -52q-110 0 -184 53.5t-85 145.5l54 12q9 -77 69 -121.5
t150 -44.5q85 0 135 39t50 105q0 54 -29.5 80t-95.5 41l-155 36q-154 36 -154 161q0 84 63.5 134.5t165.5 50.5z" />
    <glyph glyph-name="T" unicode="T" horiz-adv-x="630" 
d="M602 624h-261v-624h-52v624h-261v46h574v-46z" />
    <glyph glyph-name="U" unicode="U" horiz-adv-x="725" 
d="M638 670v-381q0 -135 -75.5 -217.5t-198.5 -82.5q-125 0 -201 82.5t-76 217.5v381h51v-381q0 -114 62 -183t164 -69q101 0 162.5 69t61.5 183v381h50z" />
    <glyph glyph-name="V" unicode="V" horiz-adv-x="679" 
d="M658 670l-295 -670h-47l-295 670h55l263 -600l264 600h55z" />
    <glyph glyph-name="W" unicode="W" horiz-adv-x="949" 
d="M927 670l-211 -670h-51l-191 590l-191 -590h-50l-212 670h53l186 -592l190 592h49l190 -592l185 592h53z" />
    <glyph glyph-name="X" unicode="X" horiz-adv-x="617" 
d="M533 0l-225 304l-224 -304h-63l250 337l-242 333h62l217 -300l218 300h62l-243 -333l251 -337h-63z" />
    <glyph glyph-name="Y" unicode="Y" horiz-adv-x="660" 
d="M355 244v-244h-51v244l-283 426h57l252 -377l251 377h58z" />
    <glyph glyph-name="Z" unicode="Z" horiz-adv-x="626" 
d="M570 44v-44h-506v32l439 594h-426v44h492v-35l-434 -591h435z" />
    <glyph glyph-name="bracketleft" unicode="[" horiz-adv-x="384" 
d="M145 697v-736h177v-43h-226v822h226v-43h-177z" />
    <glyph glyph-name="backslash" unicode="\" horiz-adv-x="343" 
d="M337 -72h-43l-288 812h43z" />
    <glyph glyph-name="bracketright" unicode="]" horiz-adv-x="384" 
d="M288 740v-822h-225v43h177v736h-177v43h225z" />
    <glyph glyph-name="asciicircum" unicode="^" horiz-adv-x="369" 
d="M75 469h-47l140 201h34l140 -201h-48l-109 155z" />
    <glyph glyph-name="underscore" unicode="_" horiz-adv-x="488" 
d="M468 -98h-448v42h448v-42z" />
    <glyph glyph-name="grave" unicode="`" horiz-adv-x="600" 
d="M238 705l87 -138h-44l-99 138h56z" />
    <glyph glyph-name="a" unicode="a" horiz-adv-x="644" 
d="M548 489v-489h-49v103q-32 -54 -87.5 -84t-122.5 -30q-104 0 -176 71t-72 185q0 113 72.5 184.5t175.5 71.5q67 0 122.5 -30.5t87.5 -84.5v103h49zM294 33q83 0 144 59t61 153t-61.5 153t-143.5 59q-86 0 -145.5 -58.5t-59.5 -153.5q0 -96 59 -154t146 -58z" />
    <glyph glyph-name="b" unicode="b" horiz-adv-x="652" 
d="M356 501q103 0 175 -71.5t72 -184.5q0 -114 -72 -185t-175 -71q-67 0 -123 30.5t-88 85.5v-105h-49v720h49v-335q32 55 88 85.5t123 30.5zM350 33q87 0 146 58t59 154q0 95 -59.5 153.5t-145.5 58.5q-82 0 -143.5 -59t-61.5 -153t61 -153t144 -59z" />
    <glyph glyph-name="c" unicode="c" horiz-adv-x="576" 
d="M301 34q63 0 113 31t67 86l45 -13q-19 -68 -82 -108.5t-143 -40.5q-105 0 -178.5 71t-73.5 185q0 112 74 184t178 72q79 0 141.5 -42t84.5 -112l-46 -15q-17 58 -67 90.5t-113 32.5q-85 0 -144.5 -59t-59.5 -151q0 -95 59 -153t145 -58z" />
    <glyph glyph-name="d" unicode="d" horiz-adv-x="652" 
d="M556 720v-720h-49v105q-32 -55 -88 -85.5t-123 -30.5q-103 0 -175 71t-72 185q0 113 72 184.5t175 71.5q67 0 123 -30.5t88 -85.5v335h49zM302 33q83 0 144 59t61 153t-61.5 153t-143.5 59q-86 0 -145.5 -58.5t-59.5 -153.5q0 -96 59 -154t146 -58z" />
    <glyph glyph-name="e" unicode="e" horiz-adv-x="588" 
d="M540 258v-18h-443q1 -94 61 -151t138 -57q140 0 190 125l43 -10q-28 -77 -88 -117.5t-145 -40.5q-99 0 -173 70t-74 184q0 115 75 186.5t178 71.5q101 0 167.5 -67.5t70.5 -175.5zM302 457q-74 0 -133.5 -49t-69.5 -130h392q-9 84 -61 131.5t-128 47.5z" />
    <glyph glyph-name="f" unicode="f" horiz-adv-x="350" 
d="M352 447h-193v-447h-49v447h-90v42h90v87q0 74 41.5 118t113.5 44q40 0 77 -16l-15 -41q-26 13 -59 13q-51 0 -80 -32t-29 -86v-87h193v-42z" />
    <glyph glyph-name="g" unicode="g" horiz-adv-x="636" 
d="M540 489v-454q-1 -103 -66 -164t-172 -61q-183 0 -241 137l43 26q53 -118 198 -118q85 0 137 50.5t53 134.5v93q-64 -105 -200 -105q-101 0 -172 66.5t-71 170.5q0 103 71 169t172 66q137 0 200 -104v93h48zM298 71q80 0 137 54t57 140t-57 139t-137 53q-85 0 -143.5 -53
t-58.5 -139q0 -87 58.5 -140.5t143.5 -53.5z" />
    <glyph glyph-name="h" unicode="h" horiz-adv-x="628" 
d="M346 501q88 0 142.5 -58t54.5 -152v-291h-49v284q0 77 -42.5 124t-111.5 47q-89 0 -142 -56.5t-53 -153.5v-245h-49v720h49v-335q60 116 201 116z" />
    <glyph glyph-name="i" unicode="i" horiz-adv-x="260" 
d="M130 676q16 0 27 -11t11 -27t-11 -26.5t-27 -10.5q-17 0 -28 10.5t-11 26.5t11 27t28 11zM154 0h-48v489h48v-489z" />
    <glyph glyph-name="j" unicode="j" horiz-adv-x="279" 
d="M149 676q16 0 27.5 -11t11.5 -27t-11 -26.5t-28 -10.5t-28 10.5t-11 26.5t11.5 27t27.5 11zM-10 -163l13 41q23 -12 48 -12q33 0 53.5 20t20.5 52v551h48v-556q0 -51 -31 -82t-82 -31q-39 0 -70 17z" />
    <glyph glyph-name="k" unicode="k" horiz-adv-x="563" 
d="M555 0h-72l-305 229h-33v-229h-49v720h49v-444h38l271 213h66l-300 -238z" />
    <glyph glyph-name="l" unicode="l" horiz-adv-x="241" 
d="M145 0h-49v720h49v-720z" />
    <glyph glyph-name="m" unicode="m" horiz-adv-x="945" 
d="M681 501q78 0 128 -49t50 -129v-323h-49v316q0 63 -38.5 101t-101.5 38q-77 0 -123 -53t-46 -145v-257h-49v316q0 63 -38.5 101t-101.5 38q-76 0 -121.5 -53.5t-45.5 -144.5v-257h-49v489h49v-96q53 108 178 108q61 0 106.5 -31t62.5 -84q27 54 76 84.5t113 30.5z" />
    <glyph glyph-name="n" unicode="n" horiz-adv-x="628" 
d="M346 501q88 0 142.5 -58t54.5 -152v-291h-49v284q0 77 -42.5 124t-111.5 47q-89 0 -142 -56.5t-53 -153.5v-245h-49v489h49v-104q60 116 201 116z" />
    <glyph glyph-name="o" unicode="o" horiz-adv-x="612" 
d="M306 500q109 0 183 -72.5t74 -182.5t-74 -183t-183 -73t-183 73t-74 183t74 182.5t183 72.5zM306 33q88 0 148.5 60.5t60.5 151.5q0 92 -60 152t-149 60t-149 -60t-60 -152q0 -91 60.5 -151.5t148.5 -60.5z" />
    <glyph glyph-name="p" unicode="p" horiz-adv-x="652" 
d="M356 501q103 0 175 -71.5t72 -184.5q0 -114 -72 -185t-175 -71q-67 0 -123 30.5t-88 85.5v-275h-49v659h49v-104q32 55 88 85.5t123 30.5zM350 33q87 0 146 58t59 154q0 95 -59.5 153.5t-145.5 58.5q-82 0 -143.5 -59t-61.5 -153t61 -153t144 -59z" />
    <glyph glyph-name="q" unicode="q" horiz-adv-x="652" 
d="M556 489v-659h-49v275q-32 -55 -88 -85.5t-123 -30.5q-103 0 -175 71t-72 185q0 113 72 184.5t175 71.5q67 0 123 -30.5t88 -85.5v104h49zM302 33q83 0 144 59t61 153t-61.5 153t-143.5 59q-86 0 -145.5 -58.5t-59.5 -153.5q0 -96 59 -154t146 -58z" />
    <glyph glyph-name="r" unicode="r" horiz-adv-x="403" 
d="M354 493q20 0 34 -3l-5 -46q-10 2 -29 2q-97 0 -152.5 -69.5t-55.5 -172.5v-204h-49v489h49v-137q31 64 84.5 102.5t123.5 38.5z" />
    <glyph glyph-name="s" unicode="s" horiz-adv-x="507" 
d="M54 134l48 12q5 -54 51 -85t115 -31q62 0 100 26.5t38 73.5q0 36 -24 55.5t-69 29.5l-120 26q-121 26 -121 119q0 63 49.5 102t129.5 39q78 0 128 -36.5t64 -95.5l-45 -12q-10 47 -49 75t-99 28q-59 0 -94 -26.5t-35 -70.5q0 -36 23 -54t67 -28l118 -26q125 -29 125 -122
q0 -67 -52 -105.5t-137 -38.5q-87 0 -144 38.5t-67 106.5z" />
    <glyph glyph-name="t" unicode="t" horiz-adv-x="373" 
d="M341 68l19 -40q-51 -39 -107 -39q-66 0 -106 39.5t-40 109.5v309h-107v42h107v161h49v-161h183v-42h-183v-306q0 -49 27.5 -77.5t72.5 -28.5q46 0 85 33z" />
    <glyph glyph-name="u" unicode="u" horiz-adv-x="628" 
d="M532 489v-489h-49v104q-29 -55 -80.5 -85.5t-119.5 -30.5q-89 0 -143 58t-54 153v290h48v-283q0 -77 42.5 -124.5t112.5 -47.5q88 0 141 56.5t53 153.5v245h49z" />
    <glyph glyph-name="v" unicode="v" horiz-adv-x="544" 
d="M523 490l-224 -490h-54l-224 490h55l196 -434l196 434h55z" />
    <glyph glyph-name="w" unicode="w" horiz-adv-x="759" 
d="M738 490l-166 -493h-48l-144 414l-145 -414h-48l-166 493h50l142 -419l147 418h39l147 -419l142 420h50z" />
    <glyph glyph-name="x" unicode="x" horiz-adv-x="571" 
d="M320 243l198 -243h-59l-173 214l-174 -214h-59l198 243l-198 247h59l174 -218l173 218h59z" />
    <glyph glyph-name="y" unicode="y" horiz-adv-x="552" 
d="M531 490l-309 -660h-54l81 174l-228 486h56l199 -430l201 430h54z" />
    <glyph glyph-name="z" unicode="z" horiz-adv-x="498" 
d="M458 42v-42h-418v34l346 413h-336v42h398v-34l-346 -413h356z" />
    <glyph glyph-name="braceleft" unicode="{" horiz-adv-x="432" 
d="M216 612v-171q0 -39 -18 -68.5t-50 -43.5q68 -29 68 -112v-171q0 -39 22.5 -62t59.5 -23h72v-43h-76q-57 0 -91.5 34t-34.5 90v171q0 42 -25.5 67t-66.5 27l-18 2v40l18 2q41 3 66.5 28t25.5 66v171q0 56 34.5 90t91.5 34h76v-42h-72q-37 0 -59.5 -23.5t-22.5 -62.5z" />
    <glyph glyph-name="bar" unicode="|" horiz-adv-x="241" 
d="M145 -72h-49v812h49v-812z" />
    <glyph glyph-name="braceright" unicode="}" horiz-adv-x="432" 
d="M375 349v-40l-18 -2q-42 -2 -67 -27t-25 -67v-171q0 -56 -34.5 -90t-91.5 -34h-76v43h72q36 0 58.5 23t22.5 62v171q0 83 68 112q-32 14 -50 43.5t-18 68.5v171q0 39 -22.5 62.5t-58.5 23.5h-72v42h76q57 0 91.5 -34t34.5 -90v-171q0 -41 25 -66t67 -28z" />
    <glyph glyph-name="asciitilde" unicode="~" horiz-adv-x="464" 
d="M86 243h-44q0 56 29.5 85.5t73.5 29.5q41 0 91 -37.5t80 -37.5q29 0 45.5 20t15.5 54h46q0 -57 -30.5 -87.5t-74.5 -30.5q-41 0 -90.5 37.5t-78.5 37.5q-30 0 -47.5 -19.5t-15.5 -51.5z" />
    <glyph glyph-name="exclamdown" unicode="&#xa1;" horiz-adv-x="260" 
d="M130 426q-16 0 -27.5 11t-11.5 26q0 16 11 26.5t28 10.5q16 0 27 -10.5t11 -26.5q0 -15 -11 -26t-27 -11zM104 -142l2 451h49l1 -451v-31h-52v31z" />
    <glyph glyph-name="cent" unicode="&#xa2;" horiz-adv-x="576" 
d="M317 454v-419q58 4 103 34t61 82l45 -13q-18 -65 -75.5 -104.5t-132.5 -44.5v-119h-43v120q-96 9 -161 78.5t-65 176.5q0 104 65 174.5t161 80.5v130h43v-130q74 -5 131.5 -46t77.5 -107l-46 -15q-15 54 -60.5 86t-103.5 36zM97 245q0 -88 51 -144.5t128 -65.5v419
q-76 -9 -127.5 -66.5t-51.5 -142.5z" />
    <glyph glyph-name="sterling" unicode="&#xa3;" horiz-adv-x="645" 
d="M591 46v-46h-528v31l85 12v245h-85v46h85v133q0 96 60 155t158 59t158 -58.5t62 -154.5l-49 -10q-1 81 -47.5 128t-123.5 47q-75 0 -121.5 -45.5t-46.5 -120.5v-133h265v-46h-265v-242h393z" />
    <glyph glyph-name="yen" unicode="&#xa5;" horiz-adv-x="653" 
d="M374 301h178v-40h-201v-88h201v-40h-201v-133h-50v133h-200v40h200v88h-200v40h177l-243 369h57l234 -360l233 360h59z" />
    <glyph glyph-name="section" unicode="&#xa7;" horiz-adv-x="530" 
d="M485 232q0 -96 -87 -132q43 -39 43 -95q0 -66 -50 -106t-131 -40q-96 0 -149 48t-52 126l43 10q1 -68 41 -105.5t115 -37.5q60 0 97 29.5t37 76.5q0 60 -75 94l-158 72q-64 28 -91.5 59t-27.5 78q0 50 24.5 83t61.5 49q-42 38 -42 94q0 66 49.5 106t130.5 40
q90 0 141.5 -47t52.5 -124l-45 -11q-1 66 -39.5 104t-107.5 38q-60 0 -97 -29.5t-37 -76.5q0 -60 76 -95l158 -71q63 -28 91 -59.5t28 -77.5zM362 125q76 31 76 104q0 31 -20.5 55t-72.5 48l-159 72q-9 4 -25 12q-75 -30 -75 -104q0 -31 20.5 -54.5t73.5 -48.5l158 -72
q14 -6 24 -12z" />
    <glyph glyph-name="dieresis" unicode="&#xa8;" horiz-adv-x="600" 
d="M206 660q16 0 27 -11.5t11 -26.5q0 -16 -10.5 -26.5t-27.5 -10.5t-28 10.5t-11 26.5q0 15 11.5 26.5t27.5 11.5zM395 660q16 0 27 -11.5t11 -26.5q0 -16 -10.5 -26.5t-27.5 -10.5t-28 10.5t-11 26.5q0 15 11.5 26.5t27.5 11.5z" />
    <glyph glyph-name="copyright" unicode="&#xa9;" horiz-adv-x="785" 
d="M392 681q144 0 244.5 -99t100.5 -249q0 -149 -100.5 -246.5t-244.5 -97.5q-145 0 -245.5 97.5t-100.5 246.5q0 150 100.5 249t245.5 99zM392 653q-132 0 -223.5 -90.5t-91.5 -228.5q0 -136 91.5 -226t223.5 -90q131 0 222.5 90t91.5 226q0 138 -91.5 228.5t-222.5 90.5z
M399 523q65 0 114 -36.5t60 -92.5l-36 -9q-13 46 -52 74t-86 28q-63 0 -106.5 -42.5t-43.5 -109.5q0 -68 43.5 -111t106.5 -43q48 0 87 29t50 75l36 -8q-11 -57 -59.5 -94.5t-113.5 -37.5q-79 0 -134 53t-55 137q0 83 55 135.5t134 52.5z" />
    <glyph glyph-name="ordfeminine" unicode="&#xaa;" horiz-adv-x="386" 
d="M201 673q60 0 96 -32t36 -91v-206h-39v52q-42 -60 -127 -60q-51 0 -81 26.5t-30 70.5t37.5 71t104.5 27h96v21q0 42 -25 65.5t-67 23.5q-81 0 -95 -78l-36 7q9 51 44 77t86 26zM173 367q52 0 86.5 30t34.5 75v31h-94q-50 0 -77.5 -19t-27.5 -51q0 -30 21.5 -48t56.5 -18z
" />
    <glyph glyph-name="guillemotleft" unicode="&#xab;" horiz-adv-x="386" 
d="M25 262l127 178h51l-127 -178l127 -178h-51zM183 262l127 178h51l-127 -178l127 -178h-51z" />
    <glyph glyph-name="registered" unicode="&#xae;" horiz-adv-x="500" 
d="M250 681q84 0 142 -57t58 -144q0 -86 -58 -143t-142 -57t-142 57t-58 143q0 87 58 144t142 57zM250 303q74 0 125.5 50.5t51.5 126.5q0 78 -51.5 129t-125.5 51t-125.5 -51t-51.5 -129q0 -76 51.5 -126.5t125.5 -50.5zM336 521q0 -25 -17 -41.5t-45 -19.5l72 -70h-29
l-70 69h-45v-69h-22v192h82q33 0 53.5 -16.5t20.5 -44.5zM202 479h59q23 0 37.5 11.5t14.5 30.5t-14 30t-37 11h-60v-83z" />
    <glyph glyph-name="macron" unicode="&#xaf;" horiz-adv-x="600" 
d="M434 589h-267v40h267v-40z" />
    <glyph glyph-name="degree" unicode="&#xb0;" horiz-adv-x="402" 
d="M202 681q52 0 89.5 -34.5t37.5 -89.5q0 -54 -37.5 -89t-89.5 -35q-53 0 -91 35t-38 89q0 55 38 89.5t91 34.5zM202 468q36 0 62.5 25t26.5 64t-26.5 64.5t-62.5 25.5q-37 0 -64 -25.5t-27 -64.5t27 -64t64 -25z" />
    <glyph glyph-name="plusminus" unicode="&#xb1;" horiz-adv-x="580" 
d="M505 367v-44h-193v-179h-44v179h-193v44h193v184h44v-184h193zM75 44h430v-44h-430v44z" />
    <glyph glyph-name="acute" unicode="&#xb4;" horiz-adv-x="600" 
d="M302 567h-44l86 138h56z" />
    <glyph glyph-name="paragraph" unicode="&#xb6;" horiz-adv-x="543" 
d="M321 0h-42v299h-50q-91 0 -150 51.5t-59 137.5q0 88 52.5 135t142.5 47h106v-670zM447 0h-42v670h42v-670z" />
    <glyph glyph-name="periodcentered" unicode="&#xb7;" horiz-adv-x="187" 
d="M94 303q16 0 27 -11t11 -26q0 -16 -10.5 -26.5t-27.5 -10.5t-28 10.5t-11 26.5q0 15 11.5 26t27.5 11z" />
    <glyph glyph-name="cedilla" unicode="&#xb8;" horiz-adv-x="600" 
d="M291 0h40l-88 -175h-54z" />
    <glyph glyph-name="ordmasculine" unicode="&#xba;" horiz-adv-x="445" 
d="M222 673q71 0 120.5 -47t49.5 -121t-49.5 -121.5t-120.5 -47.5q-69 0 -118.5 47.5t-49.5 121.5t49.5 121t118.5 47zM222 372q54 0 92.5 37.5t38.5 95.5t-38.5 95.5t-92.5 37.5q-51 0 -90 -38t-39 -95t39 -95t90 -38z" />
    <glyph glyph-name="guillemotright" unicode="&#xbb;" horiz-adv-x="386" 
d="M25 84l127 178l-127 178h51l127 -178l-127 -178h-51zM183 84l127 178l-127 178h51l127 -178l-127 -178h-51z" />
    <glyph glyph-name="onequarter" unicode="&#xbc;" horiz-adv-x="683" 
d="M113 618l-88 -53v41l103 64h25v-364h-40v312zM603 670l-506 -670h-39l506 670h39zM661 89h-63v-90h-37v90h-207v37l201 237h43v-241h63v-33zM561 122v196l-168 -196h168z" />
    <glyph glyph-name="onehalf" unicode="&#xbd;" horiz-adv-x="746" 
d="M113 618l-88 -53v41l103 64h25v-364h-40v312zM594 670l-506 -670h-39l506 670h39zM714 35v-35h-259v26l139 119q43 37 60 59.5t17 52.5q0 36 -24 57.5t-63 21.5q-41 0 -65.5 -25t-24.5 -67l-36 7q0 52 34.5 85.5t91.5 33.5q56 0 91 -30.5t35 -81.5q0 -39 -21.5 -68.5
t-67.5 -68.5l-102 -86h195z" />
    <glyph glyph-name="threequarters" unicode="&#xbe;" horiz-adv-x="779" 
d="M302 414q0 -47 -36 -78t-94 -31q-59 0 -98 33t-40 90l33 7q2 -46 31.5 -71.5t73.5 -25.5q42 0 67.5 21.5t25.5 55.5q0 32 -25.5 50.5t-67.5 18.5h-34v29h33q39 0 62.5 17t23.5 47q0 31 -25 51t-63 20q-41 0 -68 -24t-28 -66l-35 8q2 52 38.5 83t91.5 31t90.5 -29
t35.5 -74q0 -56 -59 -78q31 -9 49 -31.5t18 -53.5zM704 670l-506 -670h-39l506 670h39zM757 89h-63v-90h-37v90h-207v37l201 237h43v-241h63v-33zM657 122v196l-168 -196h168z" />
    <glyph glyph-name="questiondown" unicode="&#xbf;" horiz-adv-x="516" 
d="M266 426q-16 0 -27.5 11t-11.5 26q0 16 11 26.5t28 10.5q16 0 27 -10.5t11 -26.5q0 -15 -11 -26t-27 -11zM431 39l48 -8q-2 -94 -64 -154.5t-161 -60.5q-98 0 -158 56.5t-60 148.5q0 83 58 137.5t148 60.5v88h47v-128h-27q-75 0 -126.5 -44.5t-51.5 -113.5
q0 -72 47 -116.5t123 -44.5q78 0 126.5 49.5t50.5 129.5z" />
    <glyph glyph-name="Agrave" unicode="&#xc0;" horiz-adv-x="685" 
d="M320 748l-98 138h56l86 -138h-44zM670 0h-54l-82 183h-382l-83 -183h-54l305 670h45zM513 229l-170 377l-170 -377h340z" />
    <glyph glyph-name="Aacute" unicode="&#xc1;" horiz-adv-x="685" 
d="M371 748h-44l86 138h56zM670 0h-54l-82 183h-382l-83 -183h-54l305 670h45zM513 229l-170 377l-170 -377h340z" />
    <glyph glyph-name="Acircumflex" unicode="&#xc2;" horiz-adv-x="685" 
d="M253 741h-51l118 138h46l119 -138h-52l-90 105zM670 0h-54l-82 183h-382l-83 -183h-54l305 670h45zM513 229l-170 377l-170 -377h340z" />
    <glyph glyph-name="Atilde" unicode="&#xc3;" horiz-adv-x="685" 
d="M284 826q-20 0 -31.5 -13.5t-11.5 -36.5h-37q0 43 22 65.5t55 22.5q30 0 65.5 -26.5t57.5 -26.5q19 0 29.5 14t10.5 38h38q0 -44 -21.5 -66.5t-54.5 -22.5q-30 0 -65.5 26t-56.5 26zM670 0h-54l-82 183h-382l-83 -183h-54l305 670h45zM513 229l-170 377l-170 -377h340z
" />
    <glyph glyph-name="Adieresis" unicode="&#xc4;" horiz-adv-x="685" 
d="M249 766q-17 0 -28 10.5t-11 26.5q0 15 11.5 26.5t27.5 11.5t27 -11.5t11 -26.5q0 -16 -10.5 -26.5t-27.5 -10.5zM438 766q-17 0 -28 10.5t-11 26.5q0 15 11.5 26.5t27.5 11.5t27 -11.5t11 -26.5q0 -16 -10.5 -26.5t-27.5 -10.5zM670 0h-54l-82 183h-382l-83 -183h-54
l305 670h45zM513 229l-170 377l-170 -377h340z" />
    <glyph glyph-name="Aring" unicode="&#xc5;" horiz-adv-x="685" 
d="M343 734q-40 0 -68 27.5t-28 65.5t28 65.5t68 27.5t68 -27.5t28 -65.5t-28 -65.5t-68 -27.5zM343 888q-26 0 -44.5 -18t-18.5 -43t18.5 -43t44.5 -18t44.5 18t18.5 43t-18.5 43t-44.5 18zM670 0h-54l-82 183h-382l-83 -183h-54l305 670h45zM513 229l-170 377l-170 -377
h340z" />
    <glyph glyph-name="AE" unicode="&#xc6;" horiz-adv-x="1040" 
d="M573 624v-265h399v-45h-399v-268h429v-46h-480v170h-323l-125 -170h-59l495 670h492v-46h-429zM522 216v396l-290 -396h290z" />
    <glyph glyph-name="Ccedilla" unicode="&#xc7;" horiz-adv-x="785" 
d="M408 36q94 0 164.5 46t100.5 125l49 -12q-33 -92 -114 -147.5t-189 -58.5l-83 -164h-54l96 165q-134 11 -224.5 109.5t-90.5 235.5q0 145 100 245.5t245 100.5q112 0 196 -55t118 -148l-48 -15q-29 79 -100 125t-166 46q-124 0 -209.5 -86.5t-85.5 -212.5t85.5 -212.5
t209.5 -86.5z" />
    <glyph glyph-name="Egrave" unicode="&#xc8;" horiz-adv-x="639" 
d="M317 748l-98 138h56l86 -138h-44zM147 624v-265h399v-45h-399v-268h429v-46h-480v670h480v-46h-429z" />
    <glyph glyph-name="Eacute" unicode="&#xc9;" horiz-adv-x="639" 
d="M368 748h-44l86 138h56zM147 624v-265h399v-45h-399v-268h429v-46h-480v670h480v-46h-429z" />
    <glyph glyph-name="Ecircumflex" unicode="&#xca;" horiz-adv-x="639" 
d="M250 741h-51l118 138h46l119 -138h-52l-90 105zM147 624v-265h399v-45h-399v-268h429v-46h-480v670h480v-46h-429z" />
    <glyph glyph-name="Edieresis" unicode="&#xcb;" horiz-adv-x="639" 
d="M246 766q-17 0 -28 10.5t-11 26.5q0 15 11.5 26.5t27.5 11.5t27 -11.5t11 -26.5q0 -16 -10.5 -26.5t-27.5 -10.5zM435 766q-17 0 -28 10.5t-11 26.5q0 15 11.5 26.5t27.5 11.5t27 -11.5t11 -26.5q0 -16 -10.5 -26.5t-27.5 -10.5zM147 624v-265h399v-45h-399v-268h429v-46
h-480v670h480v-46h-429z" />
    <glyph glyph-name="Igrave" unicode="&#xcc;" horiz-adv-x="243" 
d="M56 886l86 -138h-44l-98 138h56zM147 0h-51v670h51v-670z" />
    <glyph glyph-name="Iacute" unicode="&#xcd;" horiz-adv-x="243" 
d="M149 748h-44l86 138h56zM147 0h-51v670h51v-670z" />
    <glyph glyph-name="Icircumflex" unicode="&#xce;" horiz-adv-x="243" 
d="M263 741h-52l-90 105l-90 -105h-51l118 138h46zM96 670h51v-670h-51v670z" />
    <glyph glyph-name="Idieresis" unicode="&#xcf;" horiz-adv-x="243" 
d="M27 841q16 0 27 -11.5t11 -26.5q0 -16 -10.5 -26.5t-27.5 -10.5t-28 10.5t-11 26.5q0 15 11.5 26.5t27.5 11.5zM216 841q16 0 27 -11.5t11 -26.5q0 -16 -10.5 -26.5t-27.5 -10.5t-28 10.5t-11 26.5q0 15 11.5 26.5t27.5 11.5zM147 0h-51v670h51v-670z" />
    <glyph glyph-name="Eth" unicode="&#xd0;" horiz-adv-x="747" 
d="M113 670h209q175 0 274 -95.5t99 -239.5t-99 -239.5t-274 -95.5h-209v315h-83v46h83v309zM163 46h158q153 0 238 82.5t85 206.5t-85 206.5t-238 82.5h-158v-263h180v-46h-180v-269z" />
    <glyph glyph-name="Ntilde" unicode="&#xd1;" horiz-adv-x="760" 
d="M330 826q-20 0 -31.5 -13.5t-11.5 -36.5h-37q0 43 22 65.5t55 22.5q30 0 65.5 -26.5t57.5 -26.5q19 0 29.5 14t10.5 38h38q0 -44 -21.5 -66.5t-54.5 -22.5q-30 0 -65.5 26t-56.5 26zM663 670v-670h-45l-471 583v-583h-51v670h45l472 -587v587h50z" />
    <glyph glyph-name="Ograve" unicode="&#xd2;" horiz-adv-x="811" 
d="M383 748l-98 138h56l86 -138h-44zM406 681q144 0 243 -100.5t99 -245.5q0 -146 -99 -246t-243 -100q-145 0 -244 100t-99 246q0 145 99.5 245.5t243.5 100.5zM406 36q123 0 207.5 86t84.5 213q0 126 -84.5 212.5t-207.5 86.5q-124 0 -208.5 -86.5t-84.5 -212.5
q0 -127 84.5 -213t208.5 -86z" />
    <glyph glyph-name="Oacute" unicode="&#xd3;" horiz-adv-x="811" 
d="M434 748h-44l86 138h56zM406 681q144 0 243 -100.5t99 -245.5q0 -146 -99 -246t-243 -100q-145 0 -244 100t-99 246q0 145 99.5 245.5t243.5 100.5zM406 36q123 0 207.5 86t84.5 213q0 126 -84.5 212.5t-207.5 86.5q-124 0 -208.5 -86.5t-84.5 -212.5q0 -127 84.5 -213
t208.5 -86z" />
    <glyph glyph-name="Ocircumflex" unicode="&#xd4;" horiz-adv-x="811" 
d="M316 741h-51l118 138h46l119 -138h-52l-90 105zM406 681q144 0 243 -100.5t99 -245.5q0 -146 -99 -246t-243 -100q-145 0 -244 100t-99 246q0 145 99.5 245.5t243.5 100.5zM406 36q123 0 207.5 86t84.5 213q0 126 -84.5 212.5t-207.5 86.5q-124 0 -208.5 -86.5
t-84.5 -212.5q0 -127 84.5 -213t208.5 -86z" />
    <glyph glyph-name="Otilde" unicode="&#xd5;" horiz-adv-x="811" 
d="M347 826q-20 0 -31.5 -13.5t-11.5 -36.5h-37q0 43 22 65.5t55 22.5q30 0 65.5 -26.5t57.5 -26.5q19 0 29.5 14t10.5 38h38q0 -44 -21.5 -66.5t-54.5 -22.5q-30 0 -65.5 26t-56.5 26zM406 681q144 0 243 -100.5t99 -245.5q0 -146 -99 -246t-243 -100q-145 0 -244 100
t-99 246q0 145 99.5 245.5t243.5 100.5zM406 36q123 0 207.5 86t84.5 213q0 126 -84.5 212.5t-207.5 86.5q-124 0 -208.5 -86.5t-84.5 -212.5q0 -127 84.5 -213t208.5 -86z" />
    <glyph glyph-name="Odieresis" unicode="&#xd6;" horiz-adv-x="811" 
d="M312 766q-17 0 -28 10.5t-11 26.5q0 15 11.5 26.5t27.5 11.5t27 -11.5t11 -26.5q0 -16 -10.5 -26.5t-27.5 -10.5zM501 766q-17 0 -28 10.5t-11 26.5q0 15 11.5 26.5t27.5 11.5t27 -11.5t11 -26.5q0 -16 -10.5 -26.5t-27.5 -10.5zM406 681q144 0 243 -100.5t99 -245.5
q0 -146 -99 -246t-243 -100q-145 0 -244 100t-99 246q0 145 99.5 245.5t243.5 100.5zM406 36q123 0 207.5 86t84.5 213q0 126 -84.5 212.5t-207.5 86.5q-124 0 -208.5 -86.5t-84.5 -212.5q0 -127 84.5 -213t208.5 -86z" />
    <glyph glyph-name="multiply" unicode="&#xd7;" horiz-adv-x="497" 
d="M281 305l144 -144l-32 -33l-144 145l-145 -145l-32 33l144 144l-144 145l32 32l145 -144l144 144l32 -32z" />
    <glyph glyph-name="Oslash" unicode="&#xd8;" horiz-adv-x="811" 
d="M729 626l-64 -64q83 -96 83 -227q0 -146 -99 -246t-243 -100q-132 0 -228 86l-65 -65l-30 30l65 65q-85 96 -85 230q0 145 99.5 245.5t243.5 100.5q134 0 230 -88l63 63zM113 335q0 -113 69 -196l420 420q-83 75 -196 75q-124 0 -208.5 -86.5t-84.5 -212.5zM406 36
q123 0 207.5 86t84.5 213q0 110 -67 193l-419 -419q81 -73 194 -73z" />
    <glyph glyph-name="Ugrave" unicode="&#xd9;" horiz-adv-x="725" 
d="M339 748l-98 138h56l86 -138h-44zM638 670v-381q0 -135 -75.5 -217.5t-198.5 -82.5q-125 0 -201 82.5t-76 217.5v381h51v-381q0 -114 62 -183t164 -69q101 0 162.5 69t61.5 183v381h50z" />
    <glyph glyph-name="Uacute" unicode="&#xda;" horiz-adv-x="725" 
d="M391 748h-44l86 138h56zM638 670v-381q0 -135 -75.5 -217.5t-198.5 -82.5q-125 0 -201 82.5t-76 217.5v381h51v-381q0 -114 62 -183t164 -69q101 0 162.5 69t61.5 183v381h50z" />
    <glyph glyph-name="Ucircumflex" unicode="&#xdb;" horiz-adv-x="725" 
d="M273 741h-51l118 138h46l119 -138h-52l-90 105zM638 670v-381q0 -135 -75.5 -217.5t-198.5 -82.5q-125 0 -201 82.5t-76 217.5v381h51v-381q0 -114 62 -183t164 -69q101 0 162.5 69t61.5 183v381h50z" />
    <glyph glyph-name="Udieresis" unicode="&#xdc;" horiz-adv-x="725" 
d="M269 766q-17 0 -28 10.5t-11 26.5q0 15 11.5 26.5t27.5 11.5t27 -11.5t11 -26.5q0 -16 -10.5 -26.5t-27.5 -10.5zM458 766q-17 0 -28 10.5t-11 26.5q0 15 11.5 26.5t27.5 11.5t27 -11.5t11 -26.5q0 -16 -10.5 -26.5t-27.5 -10.5zM638 670v-381q0 -135 -75.5 -217.5
t-198.5 -82.5q-125 0 -201 82.5t-76 217.5v381h51v-381q0 -114 62 -183t164 -69q101 0 162.5 69t61.5 183v381h50z" />
    <glyph glyph-name="Yacute" unicode="&#xdd;" horiz-adv-x="660" 
d="M358 748h-44l86 138h56zM355 244v-244h-51v244l-283 426h57l252 -377l251 377h58z" />
    <glyph glyph-name="Thorn" unicode="&#xde;" horiz-adv-x="617" 
d="M147 542h207q103 0 167 -58t64 -149t-64 -149t-167 -58h-207v-128h-51v670h51v-128zM147 174h206q81 0 131 45.5t50 115.5q0 71 -50 116.5t-131 45.5h-206v-323z" />
    <glyph glyph-name="germandbls" unicode="&#xdf;" horiz-adv-x="654" 
d="M435 384q78 -12 124 -61t46 -128q0 -86 -57.5 -145t-157.5 -59q-95 0 -174 40l13 41q74 -38 159 -38q80 0 126.5 46.5t46.5 114.5q0 78 -57.5 121.5t-153.5 43.5h-52v43h47q75 0 121.5 39.5t46.5 102.5q0 67 -47.5 107.5t-126.5 40.5q-88 0 -141 -56.5t-53 -151.5v-485
h-49v483q0 114 67 184t176 70q99 0 160 -51.5t61 -133.5q0 -60 -33 -106t-92 -62z" />
    <glyph glyph-name="agrave" unicode="&#xe0;" horiz-adv-x="644" 
d="M286 567l-98 138h56l86 -138h-44zM548 489v-489h-49v103q-32 -54 -87.5 -84t-122.5 -30q-104 0 -176 71t-72 185q0 113 72.5 184.5t175.5 71.5q67 0 122.5 -30.5t87.5 -84.5v103h49zM294 33q83 0 144 59t61 153t-61.5 153t-143.5 59q-86 0 -145.5 -58.5t-59.5 -153.5
q0 -96 59 -154t146 -58z" />
    <glyph glyph-name="aacute" unicode="&#xe1;" horiz-adv-x="644" 
d="M337 567h-44l86 138h56zM548 489v-489h-49v103q-32 -54 -87.5 -84t-122.5 -30q-104 0 -176 71t-72 185q0 113 72.5 184.5t175.5 71.5q67 0 122.5 -30.5t87.5 -84.5v103h49zM294 33q83 0 144 59t61 153t-61.5 153t-143.5 59q-86 0 -145.5 -58.5t-59.5 -153.5
q0 -96 59 -154t146 -58z" />
    <glyph glyph-name="acircumflex" unicode="&#xe2;" horiz-adv-x="644" 
d="M219 560h-51l118 138h46l119 -138h-52l-90 105zM548 489v-489h-49v103q-32 -54 -87.5 -84t-122.5 -30q-104 0 -176 71t-72 185q0 113 72.5 184.5t175.5 71.5q67 0 122.5 -30.5t87.5 -84.5v103h49zM294 33q83 0 144 59t61 153t-61.5 153t-143.5 59q-86 0 -145.5 -58.5
t-59.5 -153.5q0 -96 59 -154t146 -58z" />
    <glyph glyph-name="atilde" unicode="&#xe3;" horiz-adv-x="644" 
d="M250 645q-20 0 -31.5 -13.5t-11.5 -36.5h-37q0 43 22 65.5t55 22.5q30 0 65.5 -26.5t57.5 -26.5q19 0 29.5 14t10.5 38h38q0 -44 -21.5 -66.5t-54.5 -22.5q-30 0 -65.5 26t-56.5 26zM548 489v-489h-49v103q-32 -54 -87.5 -84t-122.5 -30q-104 0 -176 71t-72 185
q0 113 72.5 184.5t175.5 71.5q67 0 122.5 -30.5t87.5 -84.5v103h49zM294 33q83 0 144 59t61 153t-61.5 153t-143.5 59q-86 0 -145.5 -58.5t-59.5 -153.5q0 -96 59 -154t146 -58z" />
    <glyph glyph-name="adieresis" unicode="&#xe4;" horiz-adv-x="644" 
d="M215 585q-17 0 -28 10.5t-11 26.5q0 15 11.5 26.5t27.5 11.5t27 -11.5t11 -26.5q0 -16 -10.5 -26.5t-27.5 -10.5zM404 585q-17 0 -28 10.5t-11 26.5q0 15 11.5 26.5t27.5 11.5t27 -11.5t11 -26.5q0 -16 -10.5 -26.5t-27.5 -10.5zM548 489v-489h-49v103q-32 -54 -87.5 -84
t-122.5 -30q-104 0 -176 71t-72 185q0 113 72.5 184.5t175.5 71.5q67 0 122.5 -30.5t87.5 -84.5v103h49zM294 33q83 0 144 59t61 153t-61.5 153t-143.5 59q-86 0 -145.5 -58.5t-59.5 -153.5q0 -96 59 -154t146 -58z" />
    <glyph glyph-name="aring" unicode="&#xe5;" horiz-adv-x="644" 
d="M309 553q-40 0 -68 27.5t-28 65.5t28 65.5t68 27.5t68 -27.5t28 -65.5t-28 -65.5t-68 -27.5zM309 707q-26 0 -44.5 -18t-18.5 -43t18.5 -43t44.5 -18t44.5 18t18.5 43t-18.5 43t-44.5 18zM548 489v-489h-49v103q-32 -54 -87.5 -84t-122.5 -30q-104 0 -176 71t-72 185
q0 113 72.5 184.5t175.5 71.5q67 0 122.5 -30.5t87.5 -84.5v103h49zM294 33q83 0 144 59t61 153t-61.5 153t-143.5 59q-86 0 -145.5 -58.5t-59.5 -153.5q0 -96 59 -154t146 -58z" />
    <glyph glyph-name="ae" unicode="&#xe6;" horiz-adv-x="940" 
d="M891 231h-418q4 -92 57 -145.5t135 -53.5q53 0 104 33.5t69 92.5l44 -11q-18 -69 -81.5 -113.5t-136.5 -44.5q-77 0 -132.5 37.5t-83.5 105.5q-24 -66 -81.5 -104.5t-133.5 -38.5q-88 0 -136 40t-48 103q0 65 49.5 101t135.5 36h193v52q0 62 -40.5 99.5t-106.5 37.5
q-69 0 -110.5 -30t-49.5 -84l-44 11q8 66 61.5 106t142.5 40q66 0 115 -32t66 -86q65 118 203 118q98 0 161.5 -71t65.5 -181v-18zM473 269h369q-7 85 -56 137t-120 52q-79 0 -133 -51t-60 -138zM427 231h-193q-64 0 -101 -25.5t-37 -72.5q0 -46 37 -74.5t104 -28.5
q80 0 135 53.5t55 138.5v9z" />
    <glyph glyph-name="ccedilla" unicode="&#xe7;" horiz-adv-x="576" 
d="M301 34q63 0 113 31t67 86l45 -13q-18 -65 -75.5 -104.5t-131.5 -43.5l-83 -165h-54l96 165q-97 8 -163 77.5t-66 177.5q0 112 74 184t178 72q79 0 141.5 -42t84.5 -112l-46 -15q-17 58 -67 90.5t-113 32.5q-85 0 -144.5 -59t-59.5 -151q0 -95 59 -153t145 -58z" />
    <glyph glyph-name="egrave" unicode="&#xe8;" horiz-adv-x="588" 
d="M279 567l-98 138h56l86 -138h-44zM540 258v-18h-443q1 -94 61 -151t138 -57q140 0 190 125l43 -10q-28 -77 -88 -117.5t-145 -40.5q-99 0 -173 70t-74 184q0 115 75 186.5t178 71.5q101 0 167.5 -67.5t70.5 -175.5zM302 457q-74 0 -133.5 -49t-69.5 -130h392
q-9 84 -61 131.5t-128 47.5z" />
    <glyph glyph-name="eacute" unicode="&#xe9;" horiz-adv-x="588" 
d="M330 567h-44l86 138h56zM540 258v-18h-443q1 -94 61 -151t138 -57q140 0 190 125l43 -10q-28 -77 -88 -117.5t-145 -40.5q-99 0 -173 70t-74 184q0 115 75 186.5t178 71.5q101 0 167.5 -67.5t70.5 -175.5zM302 457q-74 0 -133.5 -49t-69.5 -130h392q-9 84 -61 131.5
t-128 47.5z" />
    <glyph glyph-name="ecircumflex" unicode="&#xea;" horiz-adv-x="588" 
d="M212 560h-51l118 138h46l119 -138h-52l-90 105zM540 258v-18h-443q1 -94 61 -151t138 -57q140 0 190 125l43 -10q-28 -77 -88 -117.5t-145 -40.5q-99 0 -173 70t-74 184q0 115 75 186.5t178 71.5q101 0 167.5 -67.5t70.5 -175.5zM302 457q-74 0 -133.5 -49t-69.5 -130
h392q-9 84 -61 131.5t-128 47.5z" />
    <glyph glyph-name="edieresis" unicode="&#xeb;" horiz-adv-x="588" 
d="M208 585q-17 0 -28 10.5t-11 26.5q0 15 11.5 26.5t27.5 11.5t27 -11.5t11 -26.5q0 -16 -10.5 -26.5t-27.5 -10.5zM397 585q-17 0 -28 10.5t-11 26.5q0 15 11.5 26.5t27.5 11.5t27 -11.5t11 -26.5q0 -16 -10.5 -26.5t-27.5 -10.5zM540 258v-18h-443q1 -94 61 -151t138 -57
q140 0 190 125l43 -10q-28 -77 -88 -117.5t-145 -40.5q-99 0 -173 70t-74 184q0 115 75 186.5t178 71.5q101 0 167.5 -67.5t70.5 -175.5zM302 457q-74 0 -133.5 -49t-69.5 -130h392q-9 84 -61 131.5t-128 47.5z" />
    <glyph glyph-name="igrave" unicode="&#xec;" horiz-adv-x="270" 
d="M70 705l86 -138h-44l-98 138h56zM159 0h-48v489h48v-489z" />
    <glyph glyph-name="iacute" unicode="&#xed;" horiz-adv-x="270" 
d="M163 567h-44l86 138h56zM159 0h-48v489h48v-489z" />
    <glyph glyph-name="icircumflex" unicode="&#xee;" horiz-adv-x="270" 
d="M277 560h-52l-90 105l-90 -105h-51l118 138h46zM111 489h48v-489h-48v489z" />
    <glyph glyph-name="idieresis" unicode="&#xef;" horiz-adv-x="270" 
d="M41 660q16 0 27 -11.5t11 -26.5q0 -16 -10.5 -26.5t-27.5 -10.5t-28 10.5t-11 26.5q0 15 11.5 26.5t27.5 11.5zM230 660q16 0 27 -11.5t11 -26.5q0 -16 -10.5 -26.5t-27.5 -10.5t-28 10.5t-11 26.5q0 15 11.5 26.5t27.5 11.5zM159 0h-48v489h48v-489z" />
    <glyph glyph-name="eth" unicode="&#xf0;" horiz-adv-x="609" 
d="M448 664l-87 -42q92 -78 145.5 -178t53.5 -196q0 -117 -74.5 -188t-177.5 -71q-107 0 -183 71.5t-76 184.5q0 112 73.5 184t177.5 72q94 0 156 -62q-55 95 -140 162l-131 -62l-16 36l111 53q-66 46 -155 82v10h83q62 -28 118 -70l106 50zM308 33q96 0 149.5 66.5
t53.5 148.5q0 90 -61 149.5t-145 59.5q-86 0 -147 -59.5t-61 -152.5t62 -152.5t149 -59.5z" />
    <glyph glyph-name="ntilde" unicode="&#xf1;" horiz-adv-x="628" 
d="M266 645q-20 0 -31.5 -13.5t-11.5 -36.5h-37q0 43 22 65.5t55 22.5q30 0 65.5 -26.5t57.5 -26.5q19 0 29.5 14t10.5 38h38q0 -44 -21.5 -66.5t-54.5 -22.5q-30 0 -65.5 26t-56.5 26zM346 501q88 0 142.5 -58t54.5 -152v-291h-49v284q0 77 -42.5 124t-111.5 47
q-89 0 -142 -56.5t-53 -153.5v-245h-49v489h49v-104q60 116 201 116z" />
    <glyph glyph-name="ograve" unicode="&#xf2;" horiz-adv-x="612" 
d="M283 575l-98 138h56l86 -138h-44zM306 500q109 0 183 -72.5t74 -182.5t-74 -183t-183 -73t-183 73t-74 183t74 182.5t183 72.5zM306 33q88 0 148.5 60.5t60.5 151.5q0 92 -60 152t-149 60t-149 -60t-60 -152q0 -91 60.5 -151.5t148.5 -60.5z" />
    <glyph glyph-name="oacute" unicode="&#xf3;" horiz-adv-x="612" 
d="M334 575h-44l86 138h56zM306 500q109 0 183 -72.5t74 -182.5t-74 -183t-183 -73t-183 73t-74 183t74 182.5t183 72.5zM306 33q88 0 148.5 60.5t60.5 151.5q0 92 -60 152t-149 60t-149 -60t-60 -152q0 -91 60.5 -151.5t148.5 -60.5z" />
    <glyph glyph-name="ocircumflex" unicode="&#xf4;" horiz-adv-x="612" 
d="M216 568h-51l118 138h46l119 -138h-52l-90 105zM306 500q109 0 183 -72.5t74 -182.5t-74 -183t-183 -73t-183 73t-74 183t74 182.5t183 72.5zM306 33q88 0 148.5 60.5t60.5 151.5q0 92 -60 152t-149 60t-149 -60t-60 -152q0 -91 60.5 -151.5t148.5 -60.5z" />
    <glyph glyph-name="otilde" unicode="&#xf5;" horiz-adv-x="612" 
d="M247 653q-20 0 -31.5 -13.5t-11.5 -36.5h-37q0 43 22 65.5t55 22.5q30 0 65.5 -26.5t57.5 -26.5q19 0 29.5 14t10.5 38h38q0 -44 -21.5 -66.5t-54.5 -22.5q-30 0 -65.5 26t-56.5 26zM306 500q109 0 183 -72.5t74 -182.5t-74 -183t-183 -73t-183 73t-74 183t74 182.5
t183 72.5zM306 33q88 0 148.5 60.5t60.5 151.5q0 92 -60 152t-149 60t-149 -60t-60 -152q0 -91 60.5 -151.5t148.5 -60.5z" />
    <glyph glyph-name="odieresis" unicode="&#xf6;" horiz-adv-x="612" 
d="M212 593q-17 0 -28 10.5t-11 26.5q0 15 11.5 26.5t27.5 11.5t27 -11.5t11 -26.5q0 -16 -10.5 -26.5t-27.5 -10.5zM401 593q-17 0 -28 10.5t-11 26.5q0 15 11.5 26.5t27.5 11.5t27 -11.5t11 -26.5q0 -16 -10.5 -26.5t-27.5 -10.5zM306 500q109 0 183 -72.5t74 -182.5
t-74 -183t-183 -73t-183 73t-74 183t74 182.5t183 72.5zM306 33q88 0 148.5 60.5t60.5 151.5q0 92 -60 152t-149 60t-149 -60t-60 -152q0 -91 60.5 -151.5t148.5 -60.5z" />
    <glyph glyph-name="divide" unicode="&#xf7;" horiz-adv-x="580" 
d="M289 524q16 0 27 -11t11 -26q0 -16 -11 -26.5t-27 -10.5q-17 0 -28 10.5t-11 26.5q0 15 11.5 26t27.5 11zM505 283h-430v44h430v-44zM289 161q16 0 27 -11.5t11 -26.5q0 -16 -11 -26.5t-27 -10.5q-17 0 -28 10.5t-11 26.5q0 15 11.5 26.5t27.5 11.5z" />
    <glyph glyph-name="oslash" unicode="&#xf8;" horiz-adv-x="608" 
d="M558 472l-57 -57q62 -70 62 -170q0 -110 -74 -183t-183 -73q-100 0 -170 61l-60 -60l-26 27l59 59q-60 69 -60 169q0 110 74 182.5t183 72.5q97 0 169 -59l57 57zM97 245q0 -79 46 -135l299 299q-58 48 -136 48q-89 0 -149 -60t-60 -152zM306 33q88 0 148.5 60.5
t60.5 151.5q0 80 -46 137l-300 -299q58 -50 137 -50z" />
    <glyph glyph-name="ugrave" unicode="&#xf9;" horiz-adv-x="628" 
d="M285 567l-98 138h56l86 -138h-44zM532 489v-489h-49v104q-29 -55 -80.5 -85.5t-119.5 -30.5q-89 0 -143 58t-54 153v290h48v-283q0 -77 42.5 -124.5t112.5 -47.5q88 0 141 56.5t53 153.5v245h49z" />
    <glyph glyph-name="uacute" unicode="&#xfa;" horiz-adv-x="628" 
d="M336 567h-44l86 138h56zM532 489v-489h-49v104q-29 -55 -80.5 -85.5t-119.5 -30.5q-89 0 -143 58t-54 153v290h48v-283q0 -77 42.5 -124.5t112.5 -47.5q88 0 141 56.5t53 153.5v245h49z" />
    <glyph glyph-name="ucircumflex" unicode="&#xfb;" horiz-adv-x="628" 
d="M218 560h-51l118 138h46l119 -138h-52l-90 105zM532 489v-489h-49v104q-29 -55 -80.5 -85.5t-119.5 -30.5q-89 0 -143 58t-54 153v290h48v-283q0 -77 42.5 -124.5t112.5 -47.5q88 0 141 56.5t53 153.5v245h49z" />
    <glyph glyph-name="udieresis" unicode="&#xfc;" horiz-adv-x="628" 
d="M214 585q-17 0 -28 10.5t-11 26.5q0 15 11.5 26.5t27.5 11.5t27 -11.5t11 -26.5q0 -16 -10.5 -26.5t-27.5 -10.5zM403 585q-17 0 -28 10.5t-11 26.5q0 15 11.5 26.5t27.5 11.5t27 -11.5t11 -26.5q0 -16 -10.5 -26.5t-27.5 -10.5zM532 489v-489h-49v104
q-29 -55 -80.5 -85.5t-119.5 -30.5q-89 0 -143 58t-54 153v290h48v-283q0 -77 42.5 -124.5t112.5 -47.5q88 0 141 56.5t53 153.5v245h49z" />
    <glyph glyph-name="yacute" unicode="&#xfd;" horiz-adv-x="552" 
d="M310 568h-44l86 138h56zM531 490l-309 -660h-54l81 174l-228 486h56l199 -430l201 430h54z" />
    <glyph glyph-name="thorn" unicode="&#xfe;" horiz-adv-x="652" 
d="M356 501q103 0 175 -71.5t72 -184.5q0 -114 -72 -185t-175 -71q-67 0 -123 30.5t-88 85.5v-275h-49v890h49v-335q32 55 88 85.5t123 30.5zM350 33q87 0 146 58t59 154q0 95 -59.5 153.5t-145.5 58.5q-82 0 -143.5 -59t-61.5 -153t61 -153t144 -59z" />
    <glyph glyph-name="ydieresis" unicode="&#xff;" horiz-adv-x="552" 
d="M188 586q-17 0 -28 10.5t-11 26.5q0 15 11.5 26.5t27.5 11.5t27 -11.5t11 -26.5q0 -16 -10.5 -26.5t-27.5 -10.5zM377 586q-17 0 -28 10.5t-11 26.5q0 15 11.5 26.5t27.5 11.5t27 -11.5t11 -26.5q0 -16 -10.5 -26.5t-27.5 -10.5zM531 490l-309 -660h-54l81 174l-228 486
h56l199 -430l201 430h54z" />
    <glyph glyph-name="Amacron" unicode="&#x100;" horiz-adv-x="685" 
d="M477 770h-267v40h267v-40zM670 0h-54l-82 183h-382l-83 -183h-54l305 670h45zM513 229l-170 377l-170 -377h340z" />
    <glyph glyph-name="amacron" unicode="&#x101;" horiz-adv-x="644" 
d="M443 589h-267v40h267v-40zM548 489v-489h-49v103q-32 -54 -87.5 -84t-122.5 -30q-104 0 -176 71t-72 185q0 113 72.5 184.5t175.5 71.5q67 0 122.5 -30.5t87.5 -84.5v103h49zM294 33q83 0 144 59t61 153t-61.5 153t-143.5 59q-86 0 -145.5 -58.5t-59.5 -153.5
q0 -96 59 -154t146 -58z" />
    <glyph glyph-name="Abreve" unicode="&#x102;" horiz-adv-x="685" 
d="M343 739q-59 0 -96.5 34.5t-37.5 91.5h42q0 -40 26.5 -65t65.5 -25q40 0 66.5 25t26.5 65h41q0 -57 -37.5 -91.5t-96.5 -34.5zM670 0h-54l-82 183h-382l-83 -183h-54l305 670h45zM513 229l-170 377l-170 -377h340z" />
    <glyph glyph-name="abreve" unicode="&#x103;" horiz-adv-x="644" 
d="M309 558q-59 0 -96.5 34.5t-37.5 91.5h42q0 -40 26.5 -65t65.5 -25q40 0 66.5 25t26.5 65h41q0 -57 -37.5 -91.5t-96.5 -34.5zM548 489v-489h-49v103q-32 -54 -87.5 -84t-122.5 -30q-104 0 -176 71t-72 185q0 113 72.5 184.5t175.5 71.5q67 0 122.5 -30.5t87.5 -84.5v103
h49zM294 33q83 0 144 59t61 153t-61.5 153t-143.5 59q-86 0 -145.5 -58.5t-59.5 -153.5q0 -96 59 -154t146 -58z" />
    <glyph glyph-name="Aogonek" unicode="&#x104;" horiz-adv-x="685" 
d="M693 -147l6 -35q-38 -13 -59 -13q-32 0 -56.5 18.5t-24.5 60.5q0 29 15.5 53.5t54.5 62.5h-13l-82 183h-382l-83 -183h-54l305 670h45l305 -670q-42 -42 -56.5 -63t-14.5 -46q0 -49 48 -49q15 0 46 11zM513 229l-170 377l-170 -377h340z" />
    <glyph glyph-name="aogonek" unicode="&#x105;" horiz-adv-x="644" 
d="M571 -147l6 -35q-38 -13 -59 -13q-32 0 -56.5 18.5t-24.5 60.5q0 29 15.5 53.5t54.5 62.5h-8v103q-32 -54 -87.5 -84t-122.5 -30q-104 0 -176 71t-72 185q0 113 72.5 184.5t175.5 71.5q67 0 122.5 -30.5t87.5 -84.5v103h49v-489q-42 -42 -56.5 -63t-14.5 -46
q0 -49 48 -49q15 0 46 11zM294 33q83 0 144 59t61 153t-61.5 153t-143.5 59q-86 0 -145.5 -58.5t-59.5 -153.5q0 -96 59 -154t146 -58z" />
    <glyph glyph-name="Cacute" unicode="&#x106;" horiz-adv-x="785" 
d="M433 748h-44l86 138h56zM408 36q94 0 164.5 46t100.5 125l49 -12q-34 -95 -118 -150.5t-196 -55.5q-145 0 -245 100.5t-100 245.5t100 245.5t245 100.5q112 0 196 -55t118 -148l-48 -15q-29 79 -100 125t-166 46q-124 0 -209.5 -86.5t-85.5 -212.5t85.5 -212.5
t209.5 -86.5z" />
    <glyph glyph-name="cacute" unicode="&#x107;" horiz-adv-x="576" 
d="M331 567h-44l86 138h56zM301 34q63 0 113 31t67 86l45 -13q-19 -68 -82 -108.5t-143 -40.5q-105 0 -178.5 71t-73.5 185q0 112 74 184t178 72q79 0 141.5 -42t84.5 -112l-46 -15q-17 58 -67 90.5t-113 32.5q-85 0 -144.5 -59t-59.5 -151q0 -95 59 -153t145 -58z" />
    <glyph glyph-name="Cdotaccent" unicode="&#x10a;" horiz-adv-x="785" 
d="M405 772q-17 0 -27.5 10.5t-10.5 26.5q0 15 11 26t27 11t27 -11t11 -26q0 -16 -10.5 -26.5t-27.5 -10.5zM408 36q94 0 164.5 46t100.5 125l49 -12q-34 -95 -118 -150.5t-196 -55.5q-145 0 -245 100.5t-100 245.5t100 245.5t245 100.5q112 0 196 -55t118 -148l-48 -15
q-29 79 -100 125t-166 46q-124 0 -209.5 -86.5t-85.5 -212.5t85.5 -212.5t209.5 -86.5z" />
    <glyph glyph-name="cdotaccent" unicode="&#x10b;" horiz-adv-x="576" 
d="M303 591q-17 0 -27.5 10.5t-10.5 26.5q0 15 11 26t27 11t27 -11t11 -26q0 -16 -10.5 -26.5t-27.5 -10.5zM301 34q63 0 113 31t67 86l45 -13q-19 -68 -82 -108.5t-143 -40.5q-105 0 -178.5 71t-73.5 185q0 112 74 184t178 72q79 0 141.5 -42t84.5 -112l-46 -15
q-17 58 -67 90.5t-113 32.5q-85 0 -144.5 -59t-59.5 -151q0 -95 59 -153t145 -58z" />
    <glyph glyph-name="Ccaron" unicode="&#x10c;" horiz-adv-x="785" 
d="M382 742l-118 139h51l90 -106l90 106h52l-119 -139h-46zM408 36q94 0 164.5 46t100.5 125l49 -12q-34 -95 -118 -150.5t-196 -55.5q-145 0 -245 100.5t-100 245.5t100 245.5t245 100.5q112 0 196 -55t118 -148l-48 -15q-29 79 -100 125t-166 46q-124 0 -209.5 -86.5
t-85.5 -212.5t85.5 -212.5t209.5 -86.5z" />
    <glyph glyph-name="ccaron" unicode="&#x10d;" horiz-adv-x="576" 
d="M280 561l-118 139h51l90 -106l90 106h52l-119 -139h-46zM301 34q63 0 113 31t67 86l45 -13q-19 -68 -82 -108.5t-143 -40.5q-105 0 -178.5 71t-73.5 185q0 112 74 184t178 72q79 0 141.5 -42t84.5 -112l-46 -15q-17 58 -67 90.5t-113 32.5q-85 0 -144.5 -59t-59.5 -151
q0 -95 59 -153t145 -58z" />
    <glyph glyph-name="Dcaron" unicode="&#x10e;" horiz-adv-x="741" 
d="M324 742l-118 139h51l90 -106l90 106h52l-119 -139h-46zM96 670h210q175 0 273.5 -95.5t98.5 -239.5t-98.5 -239.5t-273.5 -95.5h-210v670zM147 46h158q153 0 238 82.5t85 206.5t-85 206.5t-238 82.5h-158v-578z" />
    <glyph glyph-name="dcaron" unicode="&#x10f;" horiz-adv-x="652" 
d="M507 720h49v-720h-49v105q-32 -55 -88 -85.5t-123 -30.5q-103 0 -175 71t-72 185q0 113 72 184.5t175 71.5q67 0 123 -30.5t88 -85.5v335zM699 720l-10 -159h-40v159h50zM302 33q83 0 144 59t61 153t-61.5 153t-143.5 59q-86 0 -145.5 -58.5t-59.5 -153.5q0 -96 59 -154
t146 -58z" />
    <glyph glyph-name="Dcroat" unicode="&#x110;" horiz-adv-x="747" 
d="M113 670h209q175 0 274 -95.5t99 -239.5t-99 -239.5t-274 -95.5h-209v315h-83v46h83v309zM163 46h158q153 0 238 82.5t85 206.5t-85 206.5t-238 82.5h-158v-263h180v-46h-180v-269z" />
    <glyph glyph-name="dcroat" unicode="&#x111;" horiz-adv-x="669" 
d="M638 584h-82v-584h-49v105q-32 -55 -88 -85.5t-123 -30.5q-103 0 -175 71t-72 185q0 113 72 184.5t175 71.5q67 0 123 -30.5t88 -85.5v199h-186v40h186v96h49v-96h82v-40zM302 33q83 0 144 59t61 153t-61.5 153t-143.5 59q-86 0 -145.5 -58.5t-59.5 -153.5q0 -96 59 -154
t146 -58z" />
    <glyph glyph-name="Emacron" unicode="&#x112;" horiz-adv-x="639" 
d="M474 770h-267v40h267v-40zM147 624v-265h399v-45h-399v-268h429v-46h-480v670h480v-46h-429z" />
    <glyph glyph-name="emacron" unicode="&#x113;" horiz-adv-x="588" 
d="M436 589h-267v40h267v-40zM540 258v-18h-443q1 -94 61 -151t138 -57q140 0 190 125l43 -10q-28 -77 -88 -117.5t-145 -40.5q-99 0 -173 70t-74 184q0 115 75 186.5t178 71.5q101 0 167.5 -67.5t70.5 -175.5zM302 457q-74 0 -133.5 -49t-69.5 -130h392q-9 84 -61 131.5
t-128 47.5z" />
    <glyph glyph-name="Edotaccent" unicode="&#x116;" horiz-adv-x="639" 
d="M340 772q-17 0 -27.5 10.5t-10.5 26.5q0 15 11 26t27 11t27 -11t11 -26q0 -16 -10.5 -26.5t-27.5 -10.5zM147 624v-265h399v-45h-399v-268h429v-46h-480v670h480v-46h-429z" />
    <glyph glyph-name="edotaccent" unicode="&#x117;" horiz-adv-x="588" 
d="M302 591q-17 0 -27.5 10.5t-10.5 26.5q0 15 11 26t27 11t27 -11t11 -26q0 -16 -10.5 -26.5t-27.5 -10.5zM540 258v-18h-443q1 -94 61 -151t138 -57q140 0 190 125l43 -10q-28 -77 -88 -117.5t-145 -40.5q-99 0 -173 70t-74 184q0 115 75 186.5t178 71.5
q101 0 167.5 -67.5t70.5 -175.5zM302 457q-74 0 -133.5 -49t-69.5 -130h392q-9 84 -61 131.5t-128 47.5z" />
    <glyph glyph-name="Eogonek" unicode="&#x118;" horiz-adv-x="639" 
d="M147 624v-265h399v-45h-399v-268h429v-46h-36q-42 -42 -56.5 -63t-14.5 -46q0 -49 48 -49q15 0 46 11l6 -35q-38 -13 -59 -13q-32 0 -56.5 18.5t-24.5 60.5q0 29 15.5 53.5t54.5 62.5h-403v670h480v-46h-429z" />
    <glyph glyph-name="eogonek" unicode="&#x119;" horiz-adv-x="589" 
d="M540 240h-443q1 -93 59.5 -150.5t136.5 -57.5q65 0 118.5 35.5t75.5 92.5l40 -10q-13 -35 -46 -76q-64 -80 -85 -113t-21 -62q0 -25 15 -38.5t41 -13.5q22 0 47 12l6 -33q-32 -18 -61 -18q-41 0 -65 22t-24 59q0 47 54 121q-44 -21 -94 -21q-101 0 -173 71t-72 185
q0 113 76 184.5t177 71.5t168.5 -68t69.5 -176v-17zM99 278h391q-7 84 -60 132t-128 48q-72 0 -132.5 -49.5t-70.5 -130.5z" />
    <glyph glyph-name="Ecaron" unicode="&#x11a;" horiz-adv-x="639" 
d="M317 742l-118 139h51l90 -106l90 106h52l-119 -139h-46zM147 624v-265h399v-45h-399v-268h429v-46h-480v670h480v-46h-429z" />
    <glyph glyph-name="ecaron" unicode="&#x11b;" horiz-adv-x="588" 
d="M279 561l-118 139h51l90 -106l90 106h52l-119 -139h-46zM540 258v-18h-443q1 -94 61 -151t138 -57q140 0 190 125l43 -10q-28 -77 -88 -117.5t-145 -40.5q-99 0 -173 70t-74 184q0 115 75 186.5t178 71.5q101 0 167.5 -67.5t70.5 -175.5zM302 457q-74 0 -133.5 -49
t-69.5 -130h392q-9 84 -61 131.5t-128 47.5z" />
    <glyph glyph-name="Gbreve" unicode="&#x11e;" horiz-adv-x="805" 
d="M409 739q-59 0 -96.5 34.5t-37.5 91.5h42q0 -40 26.5 -65t65.5 -25q40 0 66.5 25t26.5 65h41q0 -57 -37.5 -91.5t-96.5 -34.5zM368 357h373q1 -8 1 -22q0 -147 -93.5 -246.5t-240.5 -99.5q-145 0 -245 100t-100 246t99.5 246t244.5 100q110 0 193 -50.5t119 -138.5
l-45 -17q-34 75 -104 117t-163 42q-124 0 -208.5 -86.5t-84.5 -212.5t85.5 -212.5t209.5 -86.5q120 0 198 78.5t86 196.5h-325v46z" />
    <glyph glyph-name="gbreve" unicode="&#x11f;" horiz-adv-x="636" 
d="M305 558q-59 0 -96.5 34.5t-37.5 91.5h42q0 -40 26.5 -65t65.5 -25q40 0 66.5 25t26.5 65h41q0 -57 -37.5 -91.5t-96.5 -34.5zM540 489v-454q-1 -103 -66 -164t-172 -61q-183 0 -241 137l43 26q53 -118 198 -118q85 0 137 50.5t53 134.5v93q-64 -105 -200 -105
q-101 0 -172 66.5t-71 170.5q0 103 71 169t172 66q137 0 200 -104v93h48zM298 71q80 0 137 54t57 140t-57 139t-137 53q-85 0 -143.5 -53t-58.5 -139q0 -87 58.5 -140.5t143.5 -53.5z" />
    <glyph glyph-name="Gdotaccent" unicode="&#x120;" horiz-adv-x="805" 
d="M409 772q-17 0 -27.5 10.5t-10.5 26.5q0 15 11 26t27 11t27 -11t11 -26q0 -16 -10.5 -26.5t-27.5 -10.5zM368 357h373q1 -8 1 -22q0 -147 -93.5 -246.5t-240.5 -99.5q-145 0 -245 100t-100 246t99.5 246t244.5 100q110 0 193 -50.5t119 -138.5l-45 -17q-34 75 -104 117
t-163 42q-124 0 -208.5 -86.5t-84.5 -212.5t85.5 -212.5t209.5 -86.5q120 0 198 78.5t86 196.5h-325v46z" />
    <glyph glyph-name="gdotaccent" unicode="&#x121;" horiz-adv-x="636" 
d="M304 591q-17 0 -27.5 10.5t-10.5 26.5q0 15 11 26t27 11t27 -11t11 -26q0 -16 -10.5 -26.5t-27.5 -10.5zM540 489v-454q-1 -103 -66 -164t-172 -61q-183 0 -241 137l43 26q53 -118 198 -118q85 0 137 50.5t53 134.5v93q-64 -105 -200 -105q-101 0 -172 66.5t-71 170.5
q0 103 71 169t172 66q137 0 200 -104v93h48zM298 71q80 0 137 54t57 140t-57 139t-137 53q-85 0 -143.5 -53t-58.5 -139q0 -87 58.5 -140.5t143.5 -53.5z" />
    <glyph glyph-name="Gcommaaccent" unicode="&#x122;" horiz-adv-x="805" 
d="M368 357h373q1 -8 1 -22q0 -147 -93.5 -246.5t-240.5 -99.5q-145 0 -245 100t-100 246t99.5 246t244.5 100q110 0 193 -50.5t119 -138.5l-45 -17q-34 75 -104 117t-163 42q-124 0 -208.5 -86.5t-84.5 -212.5t85.5 -212.5t209.5 -86.5q120 0 198 78.5t86 196.5h-325v46z
M370 -45h53l-59 -139h-39z" />
    <glyph glyph-name="gcommaaccent" unicode="&#x123;" horiz-adv-x="642" 
d="M343 572h-53l58 138h40zM540 489v-454q-1 -103 -66 -164t-172 -61q-183 0 -241 137l43 26q53 -118 198 -118q85 0 137 50.5t53 134.5v93q-64 -105 -200 -105q-101 0 -172 66.5t-71 170.5q0 103 71 169t172 66q137 0 200 -104v93h48zM298 71q80 0 137 54t57 140t-57 139
t-137 53q-85 0 -143.5 -53t-58.5 -139q0 -87 58.5 -140.5t143.5 -53.5z" />
    <glyph glyph-name="Hbar" unicode="&#x126;" horiz-adv-x="750" 
d="M719 476h-73v-476h-50v305h-442v-305h-51v476h-73v43h73v151h51v-151h442v151h50v-151h73v-43zM596 476h-442v-125h442v125z" />
    <glyph glyph-name="hbar" unicode="&#x127;" horiz-adv-x="622" 
d="M362 501q88 0 142.5 -58t54.5 -152v-291h-49v284q0 77 -42.5 124t-111.5 47q-89 0 -142 -56.5t-53 -153.5v-245h-48v587h-83v37h83v96h48v-96h186v-37h-186v-202q60 116 201 116z" />
    <glyph glyph-name="Imacron" unicode="&#x12a;" horiz-adv-x="243" 
d="M255 770h-268v40h268v-40zM147 0h-51v670h51v-670z" />
    <glyph glyph-name="imacron" unicode="&#x12b;" horiz-adv-x="270" 
d="M269 589h-267v40h267v-40zM159 0h-48v489h48v-489z" />
    <glyph glyph-name="Iogonek" unicode="&#x12e;" horiz-adv-x="243" 
d="M170 -147l6 -35q-38 -13 -59 -13q-32 0 -56.5 18.5t-24.5 60.5q0 29 15.5 53.5t54.5 62.5h-10v670h51v-670q-42 -42 -56.5 -63t-14.5 -46q0 -49 48 -49q15 0 46 11z" />
    <glyph glyph-name="iogonek" unicode="&#x12f;" horiz-adv-x="270" 
d="M135 591q-17 0 -27.5 10.5t-10.5 26.5q0 15 11 26t27 11t27 -11t11 -26q0 -16 -10.5 -26.5t-27.5 -10.5zM182 -147l6 -35q-38 -13 -59 -13q-32 0 -56.5 18.5t-24.5 60.5q0 29 15.5 53.5t54.5 62.5h-7v489h48v-489q-42 -42 -56.5 -63t-14.5 -46q0 -49 48 -49q15 0 46 11z
" />
    <glyph glyph-name="Idotaccent" unicode="&#x130;" horiz-adv-x="243" 
d="M121 846q16 0 27 -11t11 -26q0 -16 -10.5 -26.5t-27.5 -10.5t-27.5 10.5t-10.5 26.5q0 15 11 26t27 11zM147 0h-51v670h51v-670z" />
    <glyph glyph-name="dotlessi" unicode="&#x131;" horiz-adv-x="270" 
d="M159 0h-48v489h48v-489z" />
    <glyph glyph-name="IJ" unicode="&#x132;" horiz-adv-x="838" 
d="M96 670h51v-670h-51v670zM750 670v-423q0 -115 -66.5 -186.5t-174.5 -71.5q-97 0 -161.5 59t-76.5 155l48 11q10 -81 60.5 -130t129.5 -49q86 0 138.5 59t52.5 153v423h50z" />
    <glyph glyph-name="ij" unicode="&#x133;" horiz-adv-x="539" 
d="M130 676q16 0 27 -11t11 -27t-11 -26.5t-27 -10.5q-17 0 -28 10.5t-11 26.5t11 27t28 11zM409 676q16 0 27.5 -11t11.5 -27t-11 -26.5t-28 -10.5t-28 10.5t-11 26.5t11.5 27t27.5 11zM154 0h-48v489h48v-489zM250 -163l13 41q23 -12 48 -12q33 0 53.5 20t20.5 52v551h48
v-556q0 -51 -31 -82t-82 -31q-39 0 -70 17z" />
    <glyph glyph-name="Kcommaaccent" unicode="&#x136;" horiz-adv-x="671" 
d="M633 0h-70l-381 311h-35v-311h-51v670h51v-313h32l366 313h65l-389 -336zM298 -45h53l-59 -139h-39z" />
    <glyph glyph-name="kcommaaccent" unicode="&#x137;" horiz-adv-x="563" 
d="M555 0h-72l-305 229h-33v-229h-49v720h49v-444h38l271 213h66l-300 -238zM244 -45h53l-59 -139h-39z" />
    <glyph glyph-name="Lacute" unicode="&#x139;" horiz-adv-x="583" 
d="M149 748h-44l86 138h56zM551 46v-46h-455v670h51v-624h404z" />
    <glyph glyph-name="lacute" unicode="&#x13a;" horiz-adv-x="241" 
d="M149 798h-44l86 138h56zM145 0h-49v720h49v-720z" />
    <glyph glyph-name="Lcommaaccent" unicode="&#x13b;" horiz-adv-x="583" 
d="M551 46v-46h-455v670h51v-624h404zM308 -45h53l-59 -139h-39z" />
    <glyph glyph-name="lcommaaccent" unicode="&#x13c;" horiz-adv-x="241" 
d="M145 0h-49v720h49v-720zM49 -184l45 139h53l-59 -139h-39z" />
    <glyph glyph-name="Lcaron" unicode="&#x13d;" horiz-adv-x="583" 
d="M551 46v-46h-455v670h51v-624h404zM352 511h-40v159h50z" />
    <glyph glyph-name="lcaron" unicode="&#x13e;" horiz-adv-x="241" 
d="M145 0h-49v720h49v-720zM269 561h-40v159h50z" />
    <glyph glyph-name="Ldot" unicode="&#x13f;" horiz-adv-x="581" 
d="M551 46v-46h-455v670h51v-624h404zM378 302q-16 0 -27 10.5t-11 26.5q0 15 11 26t27 11t27 -11t11 -26q0 -16 -11 -26.5t-27 -10.5z" />
    <glyph glyph-name="ldot" unicode="&#x140;" horiz-adv-x="298" 
d="M145 0h-49v720h49v-720zM251 369q16 0 27 -11t11 -26q0 -16 -11 -26.5t-27 -10.5q-17 0 -27.5 10.5t-10.5 26.5q0 15 11 26t27 11z" />
    <glyph glyph-name="Lslash" unicode="&#x141;" horiz-adv-x="593" 
d="M563 46v-46h-454v266l-79 -39v49l79 39v355h50v-331l176 87v-49l-176 -87v-244h404z" />
    <glyph glyph-name="lslash" unicode="&#x142;" horiz-adv-x="290" 
d="M260 404l-90 -59v-345h-49v313l-91 -59v49l91 59v358h49v-326l90 59v-49z" />
    <glyph glyph-name="Nacute" unicode="&#x143;" horiz-adv-x="760" 
d="M417 748h-44l86 138h56zM663 670v-670h-45l-471 583v-583h-51v670h45l472 -587v587h50z" />
    <glyph glyph-name="nacute" unicode="&#x144;" horiz-adv-x="628" 
d="M353 567h-44l86 138h56zM346 501q88 0 142.5 -58t54.5 -152v-291h-49v284q0 77 -42.5 124t-111.5 47q-89 0 -142 -56.5t-53 -153.5v-245h-49v489h49v-104q60 116 201 116z" />
    <glyph glyph-name="Ncommaaccent" unicode="&#x145;" horiz-adv-x="760" 
d="M663 670v-670h-45l-471 583v-583h-51v670h45l472 -587v587h50zM372 -45h53l-59 -139h-39z" />
    <glyph glyph-name="ncommaaccent" unicode="&#x146;" horiz-adv-x="628" 
d="M346 501q88 0 142.5 -58t54.5 -152v-291h-49v284q0 77 -42.5 124t-111.5 47q-89 0 -142 -56.5t-53 -153.5v-245h-49v489h49v-104q60 116 201 116zM297 -45h53l-59 -139h-39z" />
    <glyph glyph-name="Ncaron" unicode="&#x147;" horiz-adv-x="760" 
d="M366 742l-118 139h51l90 -106l90 106h52l-119 -139h-46zM663 670v-670h-45l-471 583v-583h-51v670h45l472 -587v587h50z" />
    <glyph glyph-name="ncaron" unicode="&#x148;" horiz-adv-x="628" 
d="M302 561l-118 139h51l90 -106l90 106h52l-119 -139h-46zM346 501q88 0 142.5 -58t54.5 -152v-291h-49v284q0 77 -42.5 124t-111.5 47q-89 0 -142 -56.5t-53 -153.5v-245h-49v489h49v-104q60 116 201 116z" />
    <glyph glyph-name="Eng" unicode="&#x14a;" horiz-adv-x="755" 
d="M663 670v-734q0 -51 -31 -83.5t-82 -32.5q-44 0 -79 22l12 39q29 -16 58 -16q33 0 53 19t20 52v69l-467 578v-583h-51v670h45l472 -587v587h50z" />
    <glyph glyph-name="eng" unicode="&#x14b;" horiz-adv-x="628" 
d="M346 501q88 0 142.5 -58t54.5 -152v-355q0 -51 -31.5 -83.5t-81.5 -32.5q-45 0 -80 22l12 38q28 -17 58 -17q33 0 53.5 20t20.5 53v348q0 77 -42.5 124t-111.5 47q-89 0 -142 -56.5t-53 -153.5v-245h-49v489h49v-104q60 116 201 116z" />
    <glyph glyph-name="Omacron" unicode="&#x14c;" horiz-adv-x="811" 
d="M540 770h-267v40h267v-40zM406 681q144 0 243 -100.5t99 -245.5q0 -146 -99 -246t-243 -100q-145 0 -244 100t-99 246q0 145 99.5 245.5t243.5 100.5zM406 36q123 0 207.5 86t84.5 213q0 126 -84.5 212.5t-207.5 86.5q-124 0 -208.5 -86.5t-84.5 -212.5q0 -127 84.5 -213
t208.5 -86z" />
    <glyph glyph-name="omacron" unicode="&#x14d;" horiz-adv-x="612" 
d="M440 597h-267v40h267v-40zM306 500q109 0 183 -72.5t74 -182.5t-74 -183t-183 -73t-183 73t-74 183t74 182.5t183 72.5zM306 33q88 0 148.5 60.5t60.5 151.5q0 92 -60 152t-149 60t-149 -60t-60 -152q0 -91 60.5 -151.5t148.5 -60.5z" />
    <glyph glyph-name="Ohungarumlaut" unicode="&#x150;" horiz-adv-x="811" 
d="M356 748h-45l86 137h61zM449 748l85 137h61l-101 -137h-45zM406 681q144 0 243 -100.5t99 -245.5q0 -146 -99 -246t-243 -100q-145 0 -244 100t-99 246q0 145 99.5 245.5t243.5 100.5zM406 36q123 0 207.5 86t84.5 213q0 126 -84.5 212.5t-207.5 86.5
q-124 0 -208.5 -86.5t-84.5 -212.5q0 -127 84.5 -213t208.5 -86z" />
    <glyph glyph-name="ohungarumlaut" unicode="&#x151;" horiz-adv-x="612" 
d="M256 575h-45l86 137h61zM349 575l85 137h61l-101 -137h-45zM306 500q109 0 183 -72.5t74 -182.5t-74 -183t-183 -73t-183 73t-74 183t74 182.5t183 72.5zM306 33q88 0 148.5 60.5t60.5 151.5q0 92 -60 152t-149 60t-149 -60t-60 -152q0 -91 60.5 -151.5t148.5 -60.5z" />
    <glyph glyph-name="OE" unicode="&#x152;" horiz-adv-x="1054" 
d="M992 46v-46h-527q-187 0 -294.5 93t-107.5 242q0 148 107.5 241.5t294.5 93.5h526v-46h-429v-265h399v-45h-399v-268h430zM512 46v578h-47q-166 0 -259 -80t-93 -209t93 -209t259 -80h47z" />
    <glyph glyph-name="oe" unicode="&#x153;" horiz-adv-x="1055" 
d="M1007 258v-18h-443q1 -94 61 -151t138 -57q140 0 190 125l43 -10q-28 -77 -88 -117.5t-145 -40.5q-71 0 -132.5 38.5t-91.5 105.5q-31 -67 -93 -105.5t-140 -38.5q-109 0 -183 73t-74 183t74 182.5t183 72.5q78 0 140.5 -39t92.5 -105q31 68 93.5 106.5t136.5 38.5
q101 0 167.5 -67.5t70.5 -175.5zM306 33q88 0 148.5 60.5t60.5 151.5q0 92 -60 152t-149 60t-149 -60t-60 -152q0 -91 60.5 -151.5t148.5 -60.5zM769 457q-74 0 -133.5 -49t-69.5 -130h392q-9 84 -61 131.5t-128 47.5z" />
    <glyph glyph-name="Racute" unicode="&#x154;" horiz-adv-x="668" 
d="M351 748h-44l86 138h56zM636 0h-66l-276 308h-147v-308h-51v670h305q94 0 151 -49.5t57 -131.5t-57 -131.5t-151 -49.5h-43zM147 353h254q71 0 114.5 37.5t43.5 98.5t-43.5 98t-114.5 37h-254v-271z" />
    <glyph glyph-name="racute" unicode="&#x155;" horiz-adv-x="403" 
d="M242 567h-44l86 138h56zM354 493q20 0 34 -3l-5 -46q-10 2 -29 2q-97 0 -152.5 -69.5t-55.5 -172.5v-204h-49v489h49v-137q31 64 84.5 102.5t123.5 38.5z" />
    <glyph glyph-name="Rcommaaccent" unicode="&#x156;" horiz-adv-x="668" 
d="M636 0h-66l-276 308h-147v-308h-51v670h305q94 0 151 -49.5t57 -131.5t-57 -131.5t-151 -49.5h-43zM147 353h254q71 0 114.5 37.5t43.5 98.5t-43.5 98t-114.5 37h-254v-271zM305 -45h53l-59 -139h-39z" />
    <glyph glyph-name="rcommaaccent" unicode="&#x157;" horiz-adv-x="403" 
d="M354 493q20 0 34 -3l-5 -46q-10 2 -29 2q-97 0 -152.5 -69.5t-55.5 -172.5v-204h-49v489h49v-137q31 64 84.5 102.5t123.5 38.5zM95 -45h53l-59 -139h-39z" />
    <glyph glyph-name="Rcaron" unicode="&#x158;" horiz-adv-x="668" 
d="M300 742l-118 139h51l90 -106l90 106h52l-119 -139h-46zM636 0h-66l-276 308h-147v-308h-51v670h305q94 0 151 -49.5t57 -131.5t-57 -131.5t-151 -49.5h-43zM147 353h254q71 0 114.5 37.5t43.5 98.5t-43.5 98t-114.5 37h-254v-271z" />
    <glyph glyph-name="rcaron" unicode="&#x159;" horiz-adv-x="403" 
d="M191 561l-118 139h51l90 -106l90 106h52l-119 -139h-46zM354 493q20 0 34 -3l-5 -46q-10 2 -29 2q-97 0 -152.5 -69.5t-55.5 -172.5v-204h-49v489h49v-137q31 64 84.5 102.5t123.5 38.5z" />
    <glyph glyph-name="Sacute" unicode="&#x15a;" horiz-adv-x="619" 
d="M343 748h-44l86 138h56zM308 681q98 0 162.5 -49t81.5 -130l-50 -12q-13 67 -65 107t-131 40q-76 0 -124.5 -38t-48.5 -102q0 -51 30.5 -77.5t88.5 -39.5l147 -35q35 -7 61.5 -18t51 -30t38 -48.5t13.5 -68.5q0 -87 -65.5 -139t-173.5 -52q-110 0 -184 53.5t-85 145.5
l54 12q9 -77 69 -121.5t150 -44.5q85 0 135 39t50 105q0 54 -29.5 80t-95.5 41l-155 36q-154 36 -154 161q0 84 63.5 134.5t165.5 50.5z" />
    <glyph glyph-name="sacute" unicode="&#x15b;" horiz-adv-x="507" 
d="M285 567h-44l86 138h56zM54 134l48 12q5 -54 51 -85t115 -31q62 0 100 26.5t38 73.5q0 36 -24 55.5t-69 29.5l-120 26q-121 26 -121 119q0 63 49.5 102t129.5 39q78 0 128 -36.5t64 -95.5l-45 -12q-10 47 -49 75t-99 28q-59 0 -94 -26.5t-35 -70.5q0 -36 23 -54t67 -28
l118 -26q125 -29 125 -122q0 -67 -52 -105.5t-137 -38.5q-87 0 -144 38.5t-67 106.5z" />
    <glyph glyph-name="Scedilla" unicode="&#x15e;" horiz-adv-x="619" 
d="M563 180q0 -83 -59.5 -134.5t-160.5 -56.5l-83 -164h-54l96 165q-101 5 -169 58t-78 140l54 12q9 -77 69 -121.5t150 -44.5q85 0 135 39t50 105q0 54 -29.5 80t-95.5 41l-155 36q-154 36 -154 161q0 84 63.5 134.5t165.5 50.5q98 0 162.5 -49t81.5 -130l-50 -12
q-13 67 -65 107t-131 40q-76 0 -124.5 -38t-48.5 -102q0 -51 30.5 -77.5t88.5 -39.5l147 -35q35 -7 61.5 -18t51 -30t38 -48.5t13.5 -68.5z" />
    <glyph glyph-name="scedilla" unicode="&#x15f;" horiz-adv-x="507" 
d="M454 133q0 -63 -45 -100.5t-121 -42.5l-83 -165h-54l96 164q-81 5 -132.5 43t-60.5 102l48 12q5 -54 51 -85t115 -31q62 0 100 26.5t38 73.5q0 36 -24 55.5t-69 29.5l-120 26q-121 26 -121 119q0 63 49.5 102t129.5 39q78 0 128 -36.5t64 -95.5l-45 -12q-10 47 -49 75
t-99 28q-59 0 -94 -26.5t-35 -70.5q0 -36 23 -54t67 -28l118 -26q125 -29 125 -122z" />
    <glyph glyph-name="Scaron" unicode="&#x160;" horiz-adv-x="619" 
d="M292 742l-118 139h51l90 -106l90 106h52l-119 -139h-46zM252 380l147 -35q35 -7 61.5 -18t51 -30t38 -48.5t13.5 -68.5q0 -87 -65.5 -139t-173.5 -52q-110 0 -184 53.5t-85 145.5l54 12q9 -77 69 -121.5t150 -44.5q85 0 135 39t50 105q0 54 -29.5 80t-95.5 41l-155 36
q-154 36 -154 161q0 84 63.5 134.5t165.5 50.5q98 0 162.5 -49t81.5 -130l-50 -12q-13 67 -65 107t-131 40q-76 0 -124.5 -38t-48.5 -102q0 -51 30.5 -77.5t88.5 -39.5z" />
    <glyph glyph-name="scaron" unicode="&#x161;" horiz-adv-x="507" 
d="M234 561l-118 139h51l90 -106l90 106h52l-119 -139h-46zM211 281l118 -26q125 -29 125 -122q0 -67 -52 -105.5t-137 -38.5q-87 0 -144 38.5t-67 106.5l48 12q5 -54 51 -85t115 -31q62 0 100 26.5t38 73.5q0 36 -24 55.5t-69 29.5l-120 26q-121 26 -121 119q0 63 49.5 102
t129.5 39q78 0 128 -36.5t64 -95.5l-45 -12q-10 47 -49 75t-99 28q-59 0 -94 -26.5t-35 -70.5q0 -36 23 -54t67 -28z" />
    <glyph glyph-name="tcedilla" unicode="&#x163;" horiz-adv-x="373" 
d="M341 68l19 -40q-51 -39 -107 -39h-3l-82 -164h-54l98 168q-49 11 -77 49t-28 96v309h-107v42h107v161h49v-161h183v-42h-183v-306q0 -49 27.5 -77.5t72.5 -28.5q46 0 85 33z" />
    <glyph glyph-name="Tcaron" unicode="&#x164;" horiz-adv-x="630" 
d="M293 742l-118 139h51l90 -106l90 106h52l-119 -139h-46zM602 624h-261v-624h-52v624h-261v46h574v-46z" />
    <glyph glyph-name="tcaron" unicode="&#x165;" horiz-adv-x="373" 
d="M271 548h-40v159h50zM341 68l19 -40q-51 -39 -107 -39q-66 0 -106 39.5t-40 109.5v309h-107v42h107v161h49v-161h183v-42h-183v-306q0 -49 27.5 -77.5t72.5 -28.5q46 0 85 33z" />
    <glyph glyph-name="Tbar" unicode="&#x166;" horiz-adv-x="645" 
d="M341 624v-267h137v-42h-137v-315h-52v315h-138v42h138v267h-261v46h574v-46h-261z" />
    <glyph glyph-name="tbar" unicode="&#x167;" horiz-adv-x="373" 
d="M339 68l15 -41q-45 -38 -103 -38q-66 0 -106 39.5t-40 109.5v147h-100v41h100v121h-105v42h105v161h49v-161h183v-42h-183v-121h153v-41h-153v-144q0 -49 27.5 -77.5t72.5 -28.5q46 0 85 33z" />
    <glyph glyph-name="Umacron" unicode="&#x16a;" horiz-adv-x="725" 
d="M497 770h-267v40h267v-40zM638 670v-381q0 -135 -75.5 -217.5t-198.5 -82.5q-125 0 -201 82.5t-76 217.5v381h51v-381q0 -114 62 -183t164 -69q101 0 162.5 69t61.5 183v381h50z" />
    <glyph glyph-name="umacron" unicode="&#x16b;" horiz-adv-x="628" 
d="M442 589h-267v40h267v-40zM532 489v-489h-49v104q-29 -55 -80.5 -85.5t-119.5 -30.5q-89 0 -143 58t-54 153v290h48v-283q0 -77 42.5 -124.5t112.5 -47.5q88 0 141 56.5t53 153.5v245h49z" />
    <glyph glyph-name="Uring" unicode="&#x16e;" horiz-adv-x="725" 
d="M363 734q-40 0 -68 27.5t-28 65.5t28 65.5t68 27.5t68 -27.5t28 -65.5t-28 -65.5t-68 -27.5zM363 888q-26 0 -44.5 -18t-18.5 -43t18.5 -43t44.5 -18t44.5 18t18.5 43t-18.5 43t-44.5 18zM638 670v-381q0 -135 -75.5 -217.5t-198.5 -82.5q-125 0 -201 82.5t-76 217.5v381
h51v-381q0 -114 62 -183t164 -69q101 0 162.5 69t61.5 183v381h50z" />
    <glyph glyph-name="uring" unicode="&#x16f;" horiz-adv-x="628" 
d="M308 553q-40 0 -68 27.5t-28 65.5t28 65.5t68 27.5t68 -27.5t28 -65.5t-28 -65.5t-68 -27.5zM308 707q-26 0 -44.5 -18t-18.5 -43t18.5 -43t44.5 -18t44.5 18t18.5 43t-18.5 43t-44.5 18zM532 489v-489h-49v104q-29 -55 -80.5 -85.5t-119.5 -30.5q-89 0 -143 58t-54 153
v290h48v-283q0 -77 42.5 -124.5t112.5 -47.5q88 0 141 56.5t53 153.5v245h49z" />
    <glyph glyph-name="Uhungarumlaut" unicode="&#x170;" horiz-adv-x="725" 
d="M313 748h-45l86 137h61zM406 748l85 137h61l-101 -137h-45zM638 670v-381q0 -135 -75.5 -217.5t-198.5 -82.5q-125 0 -201 82.5t-76 217.5v381h51v-381q0 -114 62 -183t164 -69q101 0 162.5 69t61.5 183v381h50z" />
    <glyph glyph-name="uhungarumlaut" unicode="&#x171;" horiz-adv-x="628" 
d="M258 567h-45l86 137h61zM351 567l85 137h61l-101 -137h-45zM532 489v-489h-49v104q-29 -55 -80.5 -85.5t-119.5 -30.5q-89 0 -143 58t-54 153v290h48v-283q0 -77 42.5 -124.5t112.5 -47.5q88 0 141 56.5t53 153.5v245h49z" />
    <glyph glyph-name="Uogonek" unicode="&#x172;" horiz-adv-x="725" 
d="M638 670v-389q0 -144 -96 -229q-90 -75 -112.5 -100.5t-22.5 -58.5q0 -22 15 -35.5t40 -13.5q15 0 47 13l11 -35q-38 -18 -67 -18q-39 0 -64 22t-25 57q0 31 15.5 56t54.5 59q-36 -9 -70 -9q-124 0 -200.5 80.5t-76.5 211.5v389h51v-389q0 -110 62.5 -177t163.5 -67
q100 0 162 67t62 177v389h50z" />
    <glyph glyph-name="uogonek" unicode="&#x173;" horiz-adv-x="628" 
d="M555 -147l6 -35q-38 -13 -59 -13q-32 0 -56.5 18.5t-24.5 60.5q0 29 15.5 53.5t54.5 62.5h-8v104q-29 -55 -80.5 -85.5t-119.5 -30.5q-89 0 -143 58t-54 153v290h48v-283q0 -77 42.5 -124.5t112.5 -47.5q88 0 141 56.5t53 153.5v245h49v-489q-42 -42 -56.5 -63t-14.5 -46
q0 -49 48 -49q15 0 46 11z" />
    <glyph glyph-name="Wcircumflex" unicode="&#x174;" horiz-adv-x="949" 
d="M384 741h-51l118 138h46l119 -138h-52l-90 105zM927 670l-211 -670h-51l-191 590l-191 -590h-50l-212 670h53l186 -592l190 592h49l190 -592l185 592h53z" />
    <glyph glyph-name="wcircumflex" unicode="&#x175;" horiz-adv-x="759" 
d="M290 560h-51l118 138h46l119 -138h-52l-90 105zM738 490l-166 -493h-48l-144 414l-145 -414h-48l-166 493h50l142 -419l147 418h39l147 -419l142 420h50z" />
    <glyph glyph-name="Ycircumflex" unicode="&#x176;" horiz-adv-x="660" 
d="M240 741h-51l118 138h46l119 -138h-52l-90 105zM355 244v-244h-51v244l-283 426h57l252 -377l251 377h58z" />
    <glyph glyph-name="ycircumflex" unicode="&#x177;" horiz-adv-x="552" 
d="M192 561h-51l118 138h46l119 -138h-52l-90 105zM531 490l-309 -660h-54l81 174l-228 486h56l199 -430l201 430h54z" />
    <glyph glyph-name="Ydieresis" unicode="&#x178;" horiz-adv-x="660" 
d="M236 766q-17 0 -28 10.5t-11 26.5q0 15 11.5 26.5t27.5 11.5t27 -11.5t11 -26.5q0 -16 -10.5 -26.5t-27.5 -10.5zM425 766q-17 0 -28 10.5t-11 26.5q0 15 11.5 26.5t27.5 11.5t27 -11.5t11 -26.5q0 -16 -10.5 -26.5t-27.5 -10.5zM355 244v-244h-51v244l-283 426h57
l252 -377l251 377h58z" />
    <glyph glyph-name="Zacute" unicode="&#x179;" horiz-adv-x="626" 
d="M350 748h-44l86 138h56zM570 44v-44h-506v32l439 594h-426v44h492v-35l-434 -591h435z" />
    <glyph glyph-name="zacute" unicode="&#x17a;" horiz-adv-x="498" 
d="M286 567h-44l86 138h56zM458 42v-42h-418v34l346 413h-336v42h398v-34l-346 -413h356z" />
    <glyph glyph-name="Zdotaccent" unicode="&#x17b;" horiz-adv-x="626" 
d="M322 772q-17 0 -27.5 10.5t-10.5 26.5q0 15 11 26t27 11t27 -11t11 -26q0 -16 -10.5 -26.5t-27.5 -10.5zM570 44v-44h-506v32l439 594h-426v44h492v-35l-434 -591h435z" />
    <glyph glyph-name="zdotaccent" unicode="&#x17c;" horiz-adv-x="498" 
d="M258 591q-17 0 -27.5 10.5t-10.5 26.5q0 15 11 26t27 11t27 -11t11 -26q0 -16 -10.5 -26.5t-27.5 -10.5zM458 42v-42h-418v34l346 413h-336v42h398v-34l-346 -413h356z" />
    <glyph glyph-name="Zcaron" unicode="&#x17d;" horiz-adv-x="626" 
d="M299 742l-118 139h51l90 -106l90 106h52l-119 -139h-46zM570 44v-44h-506v32l439 594h-426v44h492v-35l-434 -591h435z" />
    <glyph glyph-name="zcaron" unicode="&#x17e;" horiz-adv-x="498" 
d="M235 561l-118 139h51l90 -106l90 106h52l-119 -139h-46zM458 42v-42h-418v34l346 413h-336v42h398v-34l-346 -413h356z" />
    <glyph glyph-name="florin" unicode="&#x192;" horiz-adv-x="534" 
d="M403 637q-54 0 -89.5 -33t-46.5 -90l-29 -159h206v-42h-213l-64 -356q-11 -56 -48.5 -89t-90.5 -33q-42 0 -73 23l19 40q23 -17 55 -17q34 0 59 21t31 55l64 356h-129v42h136l29 159q14 76 63.5 121.5t124.5 45.5q66 0 109 -40l-22 -38q-37 34 -91 34z" />
    <glyph glyph-name="AEacute" unicode="&#x1fc;" horiz-adv-x="1040" 
d="M723 748h-44l86 138h56zM573 624v-265h399v-45h-399v-268h429v-46h-480v170h-323l-125 -170h-59l495 670h492v-46h-429zM522 216v396l-290 -396h290z" />
    <glyph glyph-name="aeacute" unicode="&#x1fd;" horiz-adv-x="940" 
d="M493 567h-44l86 138h56zM891 231h-418q4 -92 57 -145.5t135 -53.5q53 0 104 33.5t69 92.5l44 -11q-18 -69 -81.5 -113.5t-136.5 -44.5q-77 0 -132.5 37.5t-83.5 105.5q-24 -66 -81.5 -104.5t-133.5 -38.5q-88 0 -136 40t-48 103q0 65 49.5 101t135.5 36h193v52
q0 62 -40.5 99.5t-106.5 37.5q-69 0 -110.5 -30t-49.5 -84l-44 11q8 66 61.5 106t142.5 40q66 0 115 -32t66 -86q65 118 203 118q98 0 161.5 -71t65.5 -181v-18zM473 269h369q-7 85 -56 137t-120 52q-79 0 -133 -51t-60 -138zM427 231h-193q-64 0 -101 -25.5t-37 -72.5
q0 -46 37 -74.5t104 -28.5q80 0 135 53.5t55 138.5v9z" />
    <glyph glyph-name="Scommaaccent" unicode="&#x218;" horiz-adv-x="619" 
d="M308 681q98 0 162.5 -49t81.5 -130l-50 -12q-13 67 -65 107t-131 40q-76 0 -124.5 -38t-48.5 -102q0 -51 30.5 -77.5t88.5 -39.5l147 -35q35 -7 61.5 -18t51 -30t38 -48.5t13.5 -68.5q0 -87 -65.5 -139t-173.5 -52q-110 0 -184 53.5t-85 145.5l54 12q9 -77 69 -121.5
t150 -44.5q85 0 135 39t50 105q0 54 -29.5 80t-95.5 41l-155 36q-154 36 -154 161q0 84 63.5 134.5t165.5 50.5zM243 -184l45 139h53l-59 -139h-39z" />
    <glyph glyph-name="scommaaccent" unicode="&#x219;" horiz-adv-x="507" 
d="M54 134l48 12q5 -54 51 -85t115 -31q62 0 100 26.5t38 73.5q0 36 -24 55.5t-69 29.5l-120 26q-121 26 -121 119q0 63 49.5 102t129.5 39q78 0 128 -36.5t64 -95.5l-45 -12q-10 47 -49 75t-99 28q-59 0 -94 -26.5t-35 -70.5q0 -36 23 -54t67 -28l118 -26q125 -29 125 -122
q0 -67 -52 -105.5t-137 -38.5q-87 0 -144 38.5t-67 106.5zM188 -184l45 139h53l-59 -139h-39z" />
    <glyph glyph-name="uni021A" unicode="&#x21a;" horiz-adv-x="630" 
d="M602 624h-261v-624h-52v624h-261v46h574v-46zM288 -45h53l-59 -139h-39z" />
    <glyph glyph-name="uni021B" unicode="&#x21b;" horiz-adv-x="373" 
d="M341 68l19 -40q-51 -39 -107 -39q-66 0 -106 39.5t-40 109.5v309h-107v42h107v161h49v-161h183v-42h-183v-306q0 -49 27.5 -77.5t72.5 -28.5q46 0 85 33zM196 -45h53l-59 -139h-39z" />
    <glyph glyph-name="circumflex" unicode="&#x2c6;" horiz-adv-x="600" 
d="M390 560l-90 105l-90 -105h-51l118 138h46l119 -138h-52z" />
    <glyph glyph-name="caron" unicode="&#x2c7;" horiz-adv-x="600" 
d="M442 700l-119 -139h-46l-118 139h51l90 -106l90 106h52z" />
    <glyph glyph-name="breve" unicode="&#x2d8;" horiz-adv-x="600" 
d="M300 558q-59 0 -96.5 34.5t-37.5 91.5h42q0 -40 26.5 -65t65.5 -25q40 0 66.5 25t26.5 65h41q0 -57 -37.5 -91.5t-96.5 -34.5z" />
    <glyph glyph-name="dotaccent" unicode="&#x2d9;" horiz-adv-x="600" 
d="M300 665q16 0 27 -11t11 -26q0 -16 -10.5 -26.5t-27.5 -10.5t-27.5 10.5t-10.5 26.5q0 15 11 26t27 11z" />
    <glyph glyph-name="ring" unicode="&#x2da;" horiz-adv-x="600" 
d="M396 645q0 -38 -28 -65.5t-68 -27.5t-68 27.5t-28 65.5t28 65.5t68 27.5t68 -27.5t28 -65.5zM363 645q0 25 -18.5 43t-44.5 18t-44.5 -18t-18.5 -43t18.5 -43t44.5 -18t44.5 18t18.5 43z" />
    <glyph glyph-name="ogonek" unicode="&#x2db;" horiz-adv-x="600" 
d="M280 4l37 -4q-42 -42 -56.5 -63t-14.5 -46q0 -49 48 -49q15 0 46 11l6 -35q-38 -13 -59 -13q-32 0 -56.5 18.5t-24.5 60.5q0 29 16 55t58 65z" />
    <glyph glyph-name="tilde" unicode="&#x2dc;" horiz-adv-x="600" 
d="M198 596h-37q0 43 22 65.5t55 22.5q30 0 65.5 -26.5t57.5 -26.5q19 0 29.5 14t10.5 38h38q0 -44 -21.5 -66.5t-54.5 -22.5q-30 0 -65.5 26t-56.5 26q-20 0 -31.5 -13.5t-11.5 -36.5z" />
    <glyph glyph-name="hungarumlaut" unicode="&#x2dd;" horiz-adv-x="600" 
d="M216 567h-45l86 137h61zM354 567h-45l85 137h61z" />
    <glyph glyph-name="uni0326" unicode="&#x326;" horiz-adv-x="0" 
d="M227 -184l45 139h53l-59 -139h-39z" />
    <glyph glyph-name="Wgrave" unicode="&#x1e80;" horiz-adv-x="949" 
d="M451 748l-98 138h56l86 -138h-44zM927 670l-211 -670h-51l-191 590l-191 -590h-50l-212 670h53l186 -592l190 592h49l190 -592l185 592h53z" />
    <glyph glyph-name="wgrave" unicode="&#x1e81;" horiz-adv-x="759" 
d="M357 567l-98 138h56l86 -138h-44zM738 490l-166 -493h-48l-144 414l-145 -414h-48l-166 493h50l142 -419l147 418h39l147 -419l142 420h50z" />
    <glyph glyph-name="Wacute" unicode="&#x1e82;" horiz-adv-x="949" 
d="M502 748h-44l86 138h56zM927 670l-211 -670h-51l-191 590l-191 -590h-50l-212 670h53l186 -592l190 592h49l190 -592l185 592h53z" />
    <glyph glyph-name="wacute" unicode="&#x1e83;" horiz-adv-x="759" 
d="M408 567h-44l86 138h56zM738 490l-166 -493h-48l-144 414l-145 -414h-48l-166 493h50l142 -419l147 418h39l147 -419l142 420h50z" />
    <glyph glyph-name="Wdieresis" unicode="&#x1e84;" horiz-adv-x="949" 
d="M380 766q-17 0 -28 10.5t-11 26.5q0 15 11.5 26.5t27.5 11.5t27 -11.5t11 -26.5q0 -16 -10.5 -26.5t-27.5 -10.5zM569 766q-17 0 -28 10.5t-11 26.5q0 15 11.5 26.5t27.5 11.5t27 -11.5t11 -26.5q0 -16 -10.5 -26.5t-27.5 -10.5zM927 670l-211 -670h-51l-191 590
l-191 -590h-50l-212 670h53l186 -592l190 592h49l190 -592l185 592h53z" />
    <glyph glyph-name="wdieresis" unicode="&#x1e85;" horiz-adv-x="759" 
d="M286 585q-17 0 -28 10.5t-11 26.5q0 15 11.5 26.5t27.5 11.5t27 -11.5t11 -26.5q0 -16 -10.5 -26.5t-27.5 -10.5zM475 585q-17 0 -28 10.5t-11 26.5q0 15 11.5 26.5t27.5 11.5t27 -11.5t11 -26.5q0 -16 -10.5 -26.5t-27.5 -10.5zM738 490l-166 -493h-48l-144 414
l-145 -414h-48l-166 493h50l142 -419l147 418h39l147 -419l142 420h50z" />
    <glyph glyph-name="Ygrave" unicode="&#x1ef2;" horiz-adv-x="660" 
d="M307 748l-98 138h56l86 -138h-44zM355 244v-244h-51v244l-283 426h57l252 -377l251 377h58z" />
    <glyph glyph-name="ygrave" unicode="&#x1ef3;" horiz-adv-x="552" 
d="M258 568l-98 138h56l86 -138h-44zM531 490l-309 -660h-54l81 174l-228 486h56l199 -430l201 430h54z" />
    <glyph glyph-name="endash" unicode="&#x2013;" horiz-adv-x="620" 
d="M560 235h-500v40h500v-40z" />
    <glyph glyph-name="emdash" unicode="&#x2014;" horiz-adv-x="1040" 
d="M980 235h-920v40h920v-40z" />
    <glyph glyph-name="quoteleft" unicode="&#x2018;" horiz-adv-x="234" 
d="M141 670h39l-69 -260h-59v2z" />
    <glyph glyph-name="quoteright" unicode="&#x2019;" horiz-adv-x="234" 
d="M94 410h-40l69 260h59v-2z" />
    <glyph glyph-name="quotesinglbase" unicode="&#x201a;" horiz-adv-x="234" 
d="M94 -132h-40l69 261h59v-3z" />
    <glyph glyph-name="quotedblleft" unicode="&#x201c;" horiz-adv-x="387" 
d="M141 670h39l-69 -260h-59v2zM293 670h40l-69 -260h-59v2z" />
    <glyph glyph-name="quotedblright" unicode="&#x201d;" horiz-adv-x="387" 
d="M94 410h-40l69 260h59v-2zM246 410h-40l69 260h59v-2z" />
    <glyph glyph-name="quotedblbase" unicode="&#x201e;" horiz-adv-x="387" 
d="M94 -132h-40l69 261h59v-3zM246 -132h-40l69 261h59v-3z" />
    <glyph glyph-name="dagger" unicode="&#x2020;" horiz-adv-x="334" 
d="M296 650v-37h-110v-238h-38v238h-110v37h110v90h38v-90h110z" />
    <glyph glyph-name="daggerdbl" unicode="&#x2021;" horiz-adv-x="334" 
d="M186 613v-111h110v-37h-110v-90h-38v90h-110v37h110v111h-110v37h110v90h38v-90h110v-37h-110z" />
    <glyph glyph-name="bullet" unicode="&#x2022;" horiz-adv-x="385" 
d="M192 399q58 0 98 -39.5t40 -93.5q0 -57 -39.5 -94.5t-98.5 -37.5t-98 37.5t-39 94.5q0 54 39.5 93.5t97.5 39.5z" />
    <glyph glyph-name="ellipsis" unicode="&#x2026;" horiz-adv-x="577" 
d="M94 72q16 0 27 -11t11 -26q0 -17 -11 -27.5t-27 -10.5q-17 0 -28 11t-11 27q0 15 11.5 26t27.5 11zM289 72q16 0 27 -11t11 -26q0 -17 -10.5 -27.5t-27.5 -10.5t-28 11t-11 27q0 15 11.5 26t27.5 11zM484 72q16 0 27 -11t11 -26q0 -17 -11 -27.5t-27 -10.5q-17 0 -28 11
t-11 27q0 15 11.5 26t27.5 11z" />
    <glyph glyph-name="perthousand" unicode="&#x2030;" horiz-adv-x="1238" 
d="M218 681q67 0 114.5 -43.5t47.5 -114.5q0 -68 -48 -112.5t-114 -44.5t-114.5 44.5t-48.5 112.5q0 71 48 114.5t115 43.5zM148 0l506 670h39l-506 -670h-39zM218 646q-50 0 -87.5 -34.5t-37.5 -88.5q0 -53 37.5 -86.5t87.5 -33.5q49 0 86.5 33.5t37.5 86.5q0 54 -37 88.5
t-87 34.5zM636 304q67 0 114.5 -43.5t47.5 -114.5q0 -69 -48 -113t-114 -44t-114.5 44.5t-48.5 112.5q0 71 48 114.5t115 43.5zM1021 304q67 0 114.5 -43.5t47.5 -114.5q0 -69 -48 -113t-114 -44t-114.5 44.5t-48.5 112.5q0 71 48 114.5t115 43.5zM636 269
q-50 0 -87.5 -34.5t-37.5 -88.5q0 -53 37.5 -86.5t87.5 -33.5q49 0 86.5 33.5t37.5 86.5q0 54 -37 88.5t-87 34.5zM1021 269q-50 0 -87.5 -34.5t-37.5 -88.5q0 -53 37.5 -86.5t87.5 -33.5q49 0 86.5 33.5t37.5 86.5q0 54 -37 88.5t-87 34.5z" />
    <glyph glyph-name="guilsinglleft" unicode="&#x2039;" horiz-adv-x="228" 
d="M25 262l127 178h51l-127 -178l127 -178h-51z" />
    <glyph glyph-name="guilsinglright" unicode="&#x203a;" horiz-adv-x="228" 
d="M25 84l127 178l-127 178h51l127 -178l-127 -178h-51z" />
    <glyph glyph-name="fraction" unicode="&#x2044;" horiz-adv-x="205" 
d="M-173 0l507 670h39l-507 -670h-39z" />
    <glyph glyph-name="Euro" unicode="&#x20ac;" horiz-adv-x="798" 
d="M478 36q76 0 131 50t78 141l48 -11q-24 -104 -92.5 -165.5t-164.5 -61.5q-100 0 -169.5 66.5t-91.5 180.5h-121v39h115q-3 29 -3 60q0 18 2 52h-114v39h120q20 118 90 186.5t172 68.5q97 0 165.5 -61.5t91.5 -166.5l-49 -12q-22 92 -77 143t-131 51q-80 0 -136 -56
t-75 -153h278l-10 -39h-273q-3 -25 -3 -52q0 -31 3 -60h243l-9 -39h-227q20 -93 75 -146.5t134 -53.5z" />
    <glyph glyph-name="uni2116" unicode="&#x2116;" horiz-adv-x="1234" 
d="M969 343q-69 0 -119 47.5t-50 121.5t50 121t119 47q71 0 120 -47t49 -121t-49 -121.5t-120 -47.5zM613 670h50v-670h-45l-471 583v-583h-51v670h45l472 -587v587zM969 641q-51 0 -88.5 -36.5t-37.5 -92.5t38 -93t88 -37q52 0 89.5 37t37.5 93t-37.5 92.5t-89.5 36.5z
M810 253h318v-41h-318v41z" />
    <glyph glyph-name="uni2117" unicode="&#x2117;" horiz-adv-x="785" 
d="M392 681q144 0 244.5 -99t100.5 -249q0 -149 -100.5 -246.5t-244.5 -97.5q-145 0 -245.5 97.5t-100.5 246.5q0 150 100.5 249t245.5 99zM392 18q131 0 222.5 90t91.5 226q0 138 -91.5 228.5t-222.5 90.5q-132 0 -223.5 -90.5t-91.5 -228.5q0 -136 91.5 -226t223.5 -90z
M268 517h157q63 0 101 -33.5t38 -88.5q0 -56 -38 -90t-101 -34h-122v-129h-35v375zM303 302h120q48 0 77 25.5t29 67.5q0 41 -29 66t-77 25h-120v-184z" />
    <glyph glyph-name="trademark" unicode="&#x2122;" horiz-adv-x="642" 
d="M264 641h-96v-234h-34v234h-95v29h225v-29zM593 407h-32v199l-99 -197h-22l-98 197v-199h-32v263h35l107 -210l107 210h34v-263z" />
    <glyph glyph-name="oneeighth" unicode="&#x215b;" horiz-adv-x="733" 
d="M113 618l-88 -53v41l103 64h25v-364h-40v312zM596 670l-506 -670h-39l506 670h39zM623 187q42 -10 65 -35.5t23 -59.5q0 -45 -39 -74t-102 -29q-65 0 -104 29t-39 74q0 75 90 95q-77 22 -77 83q0 42 37.5 68.5t92.5 26.5t91.5 -26.5t36.5 -68.5q0 -61 -75 -83zM476 267
q0 -28 26.5 -46t67.5 -18q40 0 65 17.5t26 46.5q1 31 -24.5 50t-66.5 19t-67.5 -19t-26.5 -50zM569 23q45 0 73 19.5t28 52.5q0 31 -27 52t-73 21q-47 0 -75 -20.5t-28 -52.5q0 -33 28 -52.5t74 -19.5z" />
    <glyph glyph-name="threeeighths" unicode="&#x215c;" horiz-adv-x="835" 
d="M302 414q0 -47 -36 -78t-94 -31q-59 0 -98 33t-40 90l33 7q2 -46 31.5 -71.5t73.5 -25.5q42 0 67.5 21.5t25.5 55.5q0 32 -25.5 50.5t-67.5 18.5h-34v29h33q39 0 62.5 17t23.5 47q0 31 -25 51t-63 20q-41 0 -68 -24t-28 -66l-35 8q2 52 38.5 83t91.5 31t90.5 -29
t35.5 -74q0 -56 -59 -78q31 -9 49 -31.5t18 -53.5zM687 670l-506 -670h-39l506 670h39zM714 187q42 -10 65 -35.5t23 -59.5q0 -45 -39 -74t-102 -29q-65 0 -104 29t-39 74q0 75 90 95q-77 22 -77 83q0 42 37.5 68.5t92.5 26.5t91.5 -26.5t36.5 -68.5q0 -61 -75 -83zM567 267
q0 -28 26.5 -46t67.5 -18q40 0 65 17.5t26 46.5q1 31 -24.5 50t-66.5 19t-67.5 -19t-26.5 -50zM660 23q45 0 73 19.5t28 52.5q0 31 -27 52t-73 21q-47 0 -75 -20.5t-28 -52.5q0 -33 28 -52.5t74 -19.5z" />
    <glyph glyph-name="fiveeighths" unicode="&#x215d;" horiz-adv-x="824" 
d="M307 419q0 -53 -37.5 -86t-98.5 -33q-54 0 -93 30t-45 76l38 6q6 -35 34 -56.5t66 -21.5q44 0 71.5 22.5t27.5 61.5q0 36 -26.5 57t-68.5 21h-121l7 174h228v-35h-193l-5 -106h91q56 0 90.5 -30t34.5 -80zM690 670l-506 -670h-39l506 670h39zM714 187q42 -10 65 -35.5
t23 -59.5q0 -45 -39 -74t-102 -29q-65 0 -104 29t-39 74q0 75 90 95q-77 22 -77 83q0 42 37.5 68.5t92.5 26.5t91.5 -26.5t36.5 -68.5q0 -61 -75 -83zM567 267q0 -28 26.5 -46t67.5 -18q40 0 65 17.5t26 46.5q1 31 -24.5 50t-66.5 19t-67.5 -19t-26.5 -50zM660 23
q45 0 73 19.5t28 52.5q0 31 -27 52t-73 21q-47 0 -75 -20.5t-28 -52.5q0 -33 28 -52.5t74 -19.5z" />
    <glyph glyph-name="seveneighths" unicode="&#x215e;" horiz-adv-x="711" 
d="M217 635h-210v35h255v-29l-167 -334h-44zM579 670l-506 -670h-39l506 670h39zM601 187q42 -10 65 -35.5t23 -59.5q0 -45 -39 -74t-102 -29q-65 0 -104 29t-39 74q0 75 90 95q-77 22 -77 83q0 42 37.5 68.5t92.5 26.5t91.5 -26.5t36.5 -68.5q0 -61 -75 -83zM454 267
q0 -28 26.5 -46t67.5 -18q40 0 65 17.5t26 46.5q1 31 -24.5 50t-66.5 19t-67.5 -19t-26.5 -50zM547 23q45 0 73 19.5t28 52.5q0 31 -27 52t-73 21q-47 0 -75 -20.5t-28 -52.5q0 -33 28 -52.5t74 -19.5z" />
    <glyph glyph-name="arrowleft" unicode="&#x2190;" horiz-adv-x="727" 
d="M687 299h-580l273 -272l-36 -37l-334 334l334 334l36 -36l-273 -273h580v-50z" />
    <glyph glyph-name="arrowup" unicode="&#x2191;" horiz-adv-x="748" 
d="M672 307l-273 274v-581h-50v581l-273 -274l-36 36l334 334l334 -334z" />
    <glyph glyph-name="arrowright" unicode="&#x2192;" horiz-adv-x="727" 
d="M717 324l-334 -334l-36 37l274 272h-581v50h581l-274 273l36 36z" />
    <glyph glyph-name="arrowdown" unicode="&#x2193;" horiz-adv-x="748" 
d="M708 327l-334 -334l-334 334l36 36l273 -273v580h50v-580l273 273z" />
    <glyph glyph-name="uni2196" unicode="&#x2196;" horiz-adv-x="746" 
d="M670 -7l-589 590v-406h-51v493h492v-50h-406l590 -590z" />
    <glyph glyph-name="uni2197" unicode="&#x2197;" horiz-adv-x="746" 
d="M716 670v-493h-51v406l-590 -590l-35 37l590 590h-407l1 50h492z" />
    <glyph glyph-name="uni2198" unicode="&#x2198;" horiz-adv-x="746" 
d="M716 493v-493h-492l-1 51h407l-590 589l35 37l590 -590v406h51z" />
    <glyph glyph-name="uni2199" unicode="&#x2199;" horiz-adv-x="746" 
d="M116 51h406v-51h-492v493h51v-406l589 590l36 -37z" />
    <glyph glyph-name="minus" unicode="&#x2212;" horiz-adv-x="580" 
d="M505 283h-430v44h430v-44z" />
    <glyph glyph-name="approxequal" unicode="&#x2248;" horiz-adv-x="580" 
d="M505 421v-47q-42 -23 -97 -23q-50 0 -113.5 30t-109.5 30q-73 0 -110 -36v45q39 33 110 33q47 0 112.5 -29.5t111.5 -29.5q58 0 96 27zM505 257v-47q-42 -23 -97 -23q-50 0 -113.5 30t-109.5 30q-73 0 -110 -36v45q39 33 110 33q47 0 112.5 -29.5t111.5 -29.5q58 0 96 27
z" />
    <glyph glyph-name="notequal" unicode="&#x2260;" horiz-adv-x="580" 
d="M359 387l-89 -141h235v-43h-263l-63 -100h-49l64 100h-119v43h146l90 141h-236v44h264l64 101h48l-64 -101h118v-44h-146z" />
    <glyph glyph-name="lessequal" unicode="&#x2264;" horiz-adv-x="418" 
d="M379 182l-348 140v41l348 141v-51l-285 -110l285 -111v-50zM379 136v-44h-345v44h345z" />
    <glyph glyph-name="greaterequal" unicode="&#x2265;" horiz-adv-x="418" 
d="M325 343l-285 110v51l348 -141v-41l-348 -140v50zM385 92h-345v44h345v-44z" />
    <glyph glyph-name="K.ss03" horiz-adv-x="701" 
d="M678 0h-65l-289 347l-177 -183v-164h-51v670h51v-444l428 444h60l-278 -288z" />
    <glyph glyph-name="Kcommaaccent.ss03" horiz-adv-x="701" 
d="M678 0h-65l-289 347l-177 -183v-164h-51v670h51v-444l428 444h60l-278 -288zM332 -45h53l-59 -139h-39z" />
    <glyph glyph-name="Q.ss04" horiz-adv-x="811" 
d="M714 -170l-161 191q-69 -32 -147 -32q-145 0 -244 100t-99 246q0 145 99.5 245.5t243.5 100.5t243 -100.5t99 -245.5q0 -89 -39.5 -164.5t-108.5 -122.5l185 -218h-71zM113 335q0 -127 84.5 -213t208.5 -86q123 0 207.5 86t84.5 213q0 126 -84.5 212.5t-207.5 86.5
q-124 0 -208.5 -86.5t-84.5 -212.5z" />
    <glyph glyph-name="I.ss05" horiz-adv-x="431" 
d="M241 624v-578h162v-46h-375v46h162v578h-162v46h375v-46h-162z" />
    <glyph glyph-name="IJ.ss05" horiz-adv-x="1025" 
d="M403 670v-46h-162v-578h162v-46h-375v46h162v578h-162v46h375zM938 670v-423q0 -115 -66.5 -186.5t-174.5 -71.5q-97 0 -161.5 59t-76.5 155l48 11q10 -81 60.5 -130t129.5 -49q86 0 138.5 59t52.5 153v377h-273v46h323z" />
    <glyph glyph-name="Iacute.ss05" horiz-adv-x="431" 
d="M243 748h-44l86 138h56zM241 624v-578h162v-46h-375v46h162v578h-162v46h375v-46h-162z" />
    <glyph glyph-name="Icircumflex.ss05" horiz-adv-x="431" 
d="M125 741h-51l118 138h46l119 -138h-52l-90 105zM241 624v-578h162v-46h-375v46h162v578h-162v46h375v-46h-162z" />
    <glyph glyph-name="Idieresis.ss05" horiz-adv-x="431" 
d="M121 766q-17 0 -28 10.5t-11 26.5q0 15 11.5 26.5t27.5 11.5t27 -11.5t11 -26.5q0 -16 -10.5 -26.5t-27.5 -10.5zM310 766q-17 0 -28 10.5t-11 26.5q0 15 11.5 26.5t27.5 11.5t27 -11.5t11 -26.5q0 -16 -10.5 -26.5t-27.5 -10.5zM241 624v-578h162v-46h-375v46h162v578
h-162v46h375v-46h-162z" />
    <glyph glyph-name="Idotaccent.ss05" horiz-adv-x="431" 
d="M215 772q-17 0 -27.5 10.5t-10.5 26.5q0 15 11 26t27 11t27 -11t11 -26q0 -16 -10.5 -26.5t-27.5 -10.5zM241 624v-578h162v-46h-375v46h162v578h-162v46h375v-46h-162z" />
    <glyph glyph-name="Igrave.ss05" horiz-adv-x="431" 
d="M192 748l-98 138h56l86 -138h-44zM241 624v-578h162v-46h-375v46h162v578h-162v46h375v-46h-162z" />
    <glyph glyph-name="Imacron.ss05" horiz-adv-x="431" 
d="M349 770h-267v40h267v-40zM241 624v-578h162v-46h-375v46h162v578h-162v46h375v-46h-162z" />
    <glyph glyph-name="Iogonek.ss05" horiz-adv-x="431" 
d="M241 624v-578h162v-46h-163q-42 -42 -56.5 -63t-14.5 -46q0 -49 48 -49q15 0 46 11l6 -35q-38 -13 -59 -13q-32 0 -56.5 18.5t-24.5 60.5q0 29 15.5 53.5t54.5 62.5h-171v46h162v578h-162v46h375v-46h-162z" />
    <glyph glyph-name="J.ss05" horiz-adv-x="595" 
d="M507 670v-423q0 -115 -66.5 -186.5t-174.5 -71.5q-97 0 -161.5 59t-76.5 155l48 11q10 -81 60.5 -130t129.5 -49q86 0 138.5 59t52.5 153v377h-273v46h323z" />
    <glyph glyph-name="i.loclTRK" horiz-adv-x="270" 
d="M135 665q16 0 27 -11t11 -26q0 -16 -10.5 -26.5t-27.5 -10.5t-27.5 10.5t-10.5 26.5q0 15 11 26t27 11zM159 0h-48v489h48v-489z" />
    <glyph glyph-name="germandbls.case" horiz-adv-x="1219" 
d="M308 681q98 0 162.5 -49t81.5 -130l-50 -12q-13 67 -65 107t-131 40q-76 0 -124.5 -38t-48.5 -102q0 -51 30.5 -77.5t88.5 -39.5l147 -35q35 -7 61.5 -18t51 -30t38 -48.5t13.5 -68.5q0 -87 -65.5 -139t-173.5 -52q-110 0 -184 53.5t-85 145.5l54 12q9 -77 69 -121.5
t150 -44.5q85 0 135 39t50 105q0 54 -29.5 80t-95.5 41l-155 36q-154 36 -154 161q0 84 63.5 134.5t165.5 50.5zM907 681q98 0 162.5 -49t81.5 -130l-50 -12q-13 67 -65 107t-131 40q-76 0 -124.5 -38t-48.5 -102q0 -51 30.5 -77.5t88.5 -39.5l147 -35q35 -7 61.5 -18
t51 -30t38 -48.5t13.5 -68.5q0 -87 -65.5 -139t-173.5 -52q-110 0 -184 53.5t-85 145.5l54 12q9 -77 69 -121.5t150 -44.5q85 0 135 39t50 105q0 54 -29.5 80t-95.5 41l-155 36q-154 36 -154 161q0 84 63.5 134.5t165.5 50.5z" />
    <glyph glyph-name="a.ss01" horiz-adv-x="545" 
d="M276 501q90 0 143 -49t53 -136v-316h-47v96q-29 -49 -82 -78t-120 -29q-79 0 -126.5 40t-47.5 103q0 68 51.5 110t147.5 42l177 -1v31q0 67 -40 105t-107 38q-62 0 -104 -30.5t-51 -81.5l-46 12q11 64 66 104t133 40zM228 30q82 0 139.5 51t57.5 126v36h-178
q-73 0 -112 -30.5t-39 -79.5q0 -45 36.5 -74t95.5 -29z" />
    <glyph glyph-name="aacute.ss01" horiz-adv-x="545" 
d="M309 567h-44l86 138h56zM276 501q90 0 143 -49t53 -136v-316h-47v96q-29 -49 -82 -78t-120 -29q-79 0 -126.5 40t-47.5 103q0 68 51.5 110t147.5 42l177 -1v31q0 67 -40 105t-107 38q-62 0 -104 -30.5t-51 -81.5l-46 12q11 64 66 104t133 40zM228 30q82 0 139.5 51
t57.5 126v36h-178q-73 0 -112 -30.5t-39 -79.5q0 -45 36.5 -74t95.5 -29z" />
    <glyph glyph-name="abreve.ss01" horiz-adv-x="545" 
d="M281 558q-59 0 -96.5 34.5t-37.5 91.5h42q0 -40 26.5 -65t65.5 -25q40 0 66.5 25t26.5 65h41q0 -57 -37.5 -91.5t-96.5 -34.5zM276 501q90 0 143 -49t53 -136v-316h-47v96q-29 -49 -82 -78t-120 -29q-79 0 -126.5 40t-47.5 103q0 68 51.5 110t147.5 42l177 -1v31
q0 67 -40 105t-107 38q-62 0 -104 -30.5t-51 -81.5l-46 12q11 64 66 104t133 40zM228 30q82 0 139.5 51t57.5 126v36h-178q-73 0 -112 -30.5t-39 -79.5q0 -45 36.5 -74t95.5 -29z" />
    <glyph glyph-name="acircumflex.ss01" horiz-adv-x="545" 
d="M191 560h-51l118 138h46l119 -138h-52l-90 105zM276 501q90 0 143 -49t53 -136v-316h-47v96q-29 -49 -82 -78t-120 -29q-79 0 -126.5 40t-47.5 103q0 68 51.5 110t147.5 42l177 -1v31q0 67 -40 105t-107 38q-62 0 -104 -30.5t-51 -81.5l-46 12q11 64 66 104t133 40z
M228 30q82 0 139.5 51t57.5 126v36h-178q-73 0 -112 -30.5t-39 -79.5q0 -45 36.5 -74t95.5 -29z" />
    <glyph glyph-name="adieresis.ss01" horiz-adv-x="545" 
d="M187 585q-17 0 -28 10.5t-11 26.5q0 15 11.5 26.5t27.5 11.5t27 -11.5t11 -26.5q0 -16 -10.5 -26.5t-27.5 -10.5zM376 585q-17 0 -28 10.5t-11 26.5q0 15 11.5 26.5t27.5 11.5t27 -11.5t11 -26.5q0 -16 -10.5 -26.5t-27.5 -10.5zM276 501q90 0 143 -49t53 -136v-316h-47
v96q-29 -49 -82 -78t-120 -29q-79 0 -126.5 40t-47.5 103q0 68 51.5 110t147.5 42l177 -1v31q0 67 -40 105t-107 38q-62 0 -104 -30.5t-51 -81.5l-46 12q11 64 66 104t133 40zM228 30q82 0 139.5 51t57.5 126v36h-178q-73 0 -112 -30.5t-39 -79.5q0 -45 36.5 -74t95.5 -29z
" />
    <glyph glyph-name="agrave.ss01" horiz-adv-x="545" 
d="M258 567l-98 138h56l86 -138h-44zM276 501q90 0 143 -49t53 -136v-316h-47v96q-29 -49 -82 -78t-120 -29q-79 0 -126.5 40t-47.5 103q0 68 51.5 110t147.5 42l177 -1v31q0 67 -40 105t-107 38q-62 0 -104 -30.5t-51 -81.5l-46 12q11 64 66 104t133 40zM228 30
q82 0 139.5 51t57.5 126v36h-178q-73 0 -112 -30.5t-39 -79.5q0 -45 36.5 -74t95.5 -29z" />
    <glyph glyph-name="amacron.ss01" horiz-adv-x="545" 
d="M415 589h-267v40h267v-40zM276 501q90 0 143 -49t53 -136v-316h-47v96q-29 -49 -82 -78t-120 -29q-79 0 -126.5 40t-47.5 103q0 68 51.5 110t147.5 42l177 -1v31q0 67 -40 105t-107 38q-62 0 -104 -30.5t-51 -81.5l-46 12q11 64 66 104t133 40zM228 30q82 0 139.5 51
t57.5 126v36h-178q-73 0 -112 -30.5t-39 -79.5q0 -45 36.5 -74t95.5 -29z" />
    <glyph glyph-name="aogonek.ss01" horiz-adv-x="545" 
d="M499 -147l6 -35q-38 -13 -59 -13q-32 0 -56.5 18.5t-24.5 60.5q0 29 15.5 53.5t54.5 62.5h-10v96q-29 -49 -82 -78t-120 -29q-79 0 -126.5 40t-47.5 103q0 68 51.5 110t147.5 42l177 -1v31q0 67 -40 105t-107 38q-62 0 -104 -30.5t-51 -81.5l-46 12q11 64 66 104t133 40
q90 0 143 -49t53 -136v-316h4q-42 -42 -56.5 -63t-14.5 -46q0 -49 48 -49q15 0 46 11zM228 30q82 0 139.5 51t57.5 126v36h-178q-73 0 -112 -30.5t-39 -79.5q0 -45 36.5 -74t95.5 -29z" />
    <glyph glyph-name="aring.ss01" horiz-adv-x="545" 
d="M281 553q-40 0 -68 27.5t-28 65.5t28 65.5t68 27.5t68 -27.5t28 -65.5t-28 -65.5t-68 -27.5zM281 707q-26 0 -44.5 -18t-18.5 -43t18.5 -43t44.5 -18t44.5 18t18.5 43t-18.5 43t-44.5 18zM276 501q90 0 143 -49t53 -136v-316h-47v96q-29 -49 -82 -78t-120 -29
q-79 0 -126.5 40t-47.5 103q0 68 51.5 110t147.5 42l177 -1v31q0 67 -40 105t-107 38q-62 0 -104 -30.5t-51 -81.5l-46 12q11 64 66 104t133 40zM228 30q82 0 139.5 51t57.5 126v36h-178q-73 0 -112 -30.5t-39 -79.5q0 -45 36.5 -74t95.5 -29z" />
    <glyph glyph-name="atilde.ss01" horiz-adv-x="545" 
d="M222 645q-20 0 -31.5 -13.5t-11.5 -36.5h-37q0 43 22 65.5t55 22.5q30 0 65.5 -26.5t57.5 -26.5q19 0 29.5 14t10.5 38h38q0 -44 -21.5 -66.5t-54.5 -22.5q-30 0 -65.5 26t-56.5 26zM276 501q90 0 143 -49t53 -136v-316h-47v96q-29 -49 -82 -78t-120 -29q-79 0 -126.5 40
t-47.5 103q0 68 51.5 110t147.5 42l177 -1v31q0 67 -40 105t-107 38q-62 0 -104 -30.5t-51 -81.5l-46 12q11 64 66 104t133 40zM228 30q82 0 139.5 51t57.5 126v36h-178q-73 0 -112 -30.5t-39 -79.5q0 -45 36.5 -74t95.5 -29z" />
    <glyph glyph-name="l.ss02" horiz-adv-x="303" 
d="M135 720v-611q0 -33 21.5 -53.5t55.5 -20.5q29 0 57 17l13 -41q-35 -22 -78 -22q-53 0 -85.5 32.5t-32.5 85.5v613h49z" />
    <glyph glyph-name="lacute.ss02" horiz-adv-x="303" 
d="M138 798h-44l86 138h56zM135 720v-611q0 -33 21.5 -53.5t55.5 -20.5q29 0 57 17l13 -41q-35 -22 -78 -22q-53 0 -85.5 32.5t-32.5 85.5v613h49z" />
    <glyph glyph-name="lcaron.ss02" horiz-adv-x="303" 
d="M135 720v-611q0 -33 21.5 -53.5t55.5 -20.5q29 0 57 17l13 -41q-35 -22 -78 -22q-53 0 -85.5 32.5t-32.5 85.5v613h49zM259 561h-40v159h50z" />
    <glyph glyph-name="lcommaaccent.ss02" horiz-adv-x="303" 
d="M135 720v-611q0 -33 21.5 -53.5t55.5 -20.5q29 0 57 17l13 -41q-35 -22 -78 -22q-53 0 -85.5 32.5t-32.5 85.5v613h49zM108 -184l45 139h53l-59 -139h-39z" />
    <glyph glyph-name="ldot.ss02" horiz-adv-x="331" 
d="M145 720v-611q0 -33 21.5 -53.5t55.5 -20.5q29 0 57 17l13 -41q-35 -22 -78 -22q-53 0 -85.5 32.5t-32.5 85.5v613h49zM283 369q16 0 27 -11t11 -26q0 -16 -10.5 -26.5t-27.5 -10.5t-27.5 10.5t-10.5 26.5q0 15 11 26t27 11z" />
    <glyph glyph-name="lslash.ss02" horiz-adv-x="329" 
d="M295 52l13 -41q-35 -22 -77 -22q-53 0 -85.5 32.5t-32.5 85.5v201l-83 -54v49l83 54v363h48v-332l99 65v-49l-99 -65v-230q0 -33 21.5 -53.5t55.5 -20.5q29 0 57 17z" />
    <glyph glyph-name="k.ss03" horiz-adv-x="590" 
d="M575 0h-62l-232 253l-136 -140v-113h-49v720h49v-540l308 309h60l-199 -203z" />
    <glyph glyph-name="kcommaaccent.ss03" horiz-adv-x="590" 
d="M575 0h-62l-232 253l-136 -140v-113h-49v720h49v-540l308 309h60l-199 -203zM282 -45h53l-59 -139h-39z" />
    <glyph glyph-name="f_j" horiz-adv-x="631" 
d="M526 489v-556q0 -51 -31.5 -82t-81.5 -31q-40 0 -71 17l13 41q23 -12 48 -12q33 0 53.5 20t20.5 52v509h-318v-447h-49v447h-90v42h90v87q0 75 42 118.5t114 43.5q52 0 93 -27l-16 -38q-33 21 -74 21q-51 0 -80.5 -32t-29.5 -86v-87h367zM501 676q16 0 27.5 -11t11.5 -27
t-11 -26.5t-28 -10.5t-28 10.5t-11 26.5t11.5 27t27.5 11z" />
    <glyph glyph-name="f_t" horiz-adv-x="728" 
d="M696 68l18 -40q-51 -39 -107 -39q-66 0 -105.5 39.5t-39.5 109.5v309h-303v-447h-49v447h-90v42h90v87q0 75 42 118.5t114 43.5q52 0 93 -27l-16 -38q-33 21 -74 21q-51 0 -80.5 -32t-29.5 -86v-87h303v161h48v-161h184v-42h-184v-306q0 -49 27.5 -77.5t72.5 -28.5t86 33
z" />
    <glyph glyph-name="fl.ss02" horiz-adv-x="653" 
d="M159 489h193v-42h-193v-447h-49v447h-90v42h90v87q0 74 41.5 118t113.5 44q40 0 77 -16l-15 -41q-26 13 -59 13q-51 0 -80 -32t-29 -86v-87zM619 52l12 -41q-35 -22 -77 -22q-53 0 -85.5 32.5t-32.5 85.5v613h49v-611q0 -33 21 -53.5t55 -20.5q30 0 58 17z" />
    <glyph glyph-name="zero.tf" 
d="M305 681q121 0 195 -95.5t74 -250.5t-74 -250.5t-195 -95.5t-194.5 95.5t-73.5 250.5t73.5 250.5t194.5 95.5zM305 36q98 0 158 82.5t60 216.5t-60 217t-158 83t-157.5 -82.5t-59.5 -217.5t59.5 -217t157.5 -82z" />
    <glyph glyph-name="one.tf" 
d="M550 46v-46h-467v46h219v562l-204 -109v48l223 123h30v-624h199z" />
    <glyph glyph-name="two.tf" 
d="M544 46v-46h-448v32l245 223q82 72 114 116.5t32 106.5q0 71 -46.5 115t-122.5 44q-78 0 -125.5 -48t-49.5 -130l-47 8q3 97 64 155.5t158 58.5t157 -55.5t60 -146.5q0 -50 -20.5 -93t-50.5 -76t-91 -89l-194 -175h365z" />
    <glyph glyph-name="three.tf" 
d="M422 345q63 -13 98 -54t35 -103q0 -89 -62 -144t-163 -55q-105 0 -170.5 60.5t-71.5 159.5l49 9q4 -84 55.5 -134.5t137.5 -50.5q80 0 129 42.5t49 111.5q0 64 -46.5 100.5t-126.5 36.5h-63v41h60q74 0 117.5 35t43.5 94q0 64 -46 103.5t-122 39.5q-79 0 -127.5 -46.5
t-52.5 -126.5l-48 9q6 94 67.5 151t161.5 57q96 0 155 -51.5t59 -135.5q0 -57 -31.5 -96t-86.5 -53z" />
    <glyph glyph-name="four.tf" 
d="M577 174h-113v-174h-49v174h-374v51l363 445h60v-453h113v-43zM415 217v394l-322 -394h322z" />
    <glyph glyph-name="five.tf" 
d="M159 390h158q101 0 158.5 -49t57.5 -143t-63.5 -151.5t-166.5 -57.5q-105 0 -171 61.5t-67 165.5l49 10q0 -88 52.5 -140t137.5 -52q81 0 131 45t50 118q0 74 -45.5 111t-126.5 37h-204l17 325h383v-46h-337z" />
    <glyph glyph-name="six.tf" 
d="M331 433q103 0 164.5 -62.5t61.5 -158.5q0 -97 -63 -160t-166 -63q-124 0 -191.5 85.5t-67.5 238.5q0 203 92 298q68 70 172 70q76 0 131 -37t74 -104l-49 -9q-15 52 -56.5 79t-101.5 27q-84 0 -138 -59q-81 -90 -75 -268v-17q19 62 79 101t134 39zM327 35q81 0 131 51.5
t50 126.5t-50 125.5t-131 50.5q-84 0 -135.5 -53t-51.5 -126q0 -76 54 -125.5t133 -49.5z" />
    <glyph glyph-name="seven.tf" 
d="M549 670v-33l-336 -637h-58l332 624h-436v46h498z" />
    <glyph glyph-name="eight.tf" 
d="M397 345q81 -16 120.5 -64t39.5 -107q0 -83 -66.5 -134t-174.5 -51q-110 0 -177.5 51t-67.5 134q0 60 40 107t121 64q-73 17 -108 61t-35 102q0 78 62 125.5t165 47.5q101 0 162 -47.5t61 -125.5q0 -57 -34.5 -102t-107.5 -61zM139 505q-1 -59 47 -97t128 -38
q81 0 128.5 38t47.5 97q0 61 -48.5 97.5t-126.5 36.5q-79 0 -127.5 -36.5t-48.5 -97.5zM314 34q84 0 136 39t52 104q0 63 -50 103t-137 40q-85 0 -136.5 -40.5t-51.5 -103.5q0 -65 51.5 -103.5t135.5 -38.5z" />
    <glyph glyph-name="nine.tf" 
d="M282 680q125 0 192 -85t67 -239q0 -203 -92 -298q-68 -70 -172 -70q-76 0 -131 37t-73 104l49 9q14 -51 55.5 -78t101.5 -27q85 0 138 58q81 90 75 268v16q-21 -61 -80 -99.5t-133 -38.5q-102 0 -164 62t-62 158q0 97 63 160t166 63zM283 280q84 0 135.5 53t51.5 126
q0 76 -54 125.5t-133 49.5q-81 0 -130.5 -51.5t-49.5 -126.5t50 -125.5t130 -50.5z" />
    <glyph glyph-name="zero.zero.tf" 
d="M305 681q121 0 195 -95.5t74 -250.5t-74 -250.5t-195 -95.5t-194.5 95.5t-73.5 250.5t73.5 250.5t194.5 95.5zM305 635q-98 0 -157.5 -82.5t-59.5 -217.5q0 -107 38 -180l324 414q-58 66 -145 66zM305 36q98 0 158 82.5t60 216.5q0 121 -49 201l-326 -418q60 -82 157 -82
z" />
    <glyph glyph-name="zero.zero" horiz-adv-x="650" 
d="M332 681q122 0 197.5 -95.5t75.5 -250.5t-75.5 -250.5t-197.5 -95.5t-197 95.5t-75 250.5t75 250.5t197 95.5zM332 635q-100 0 -160.5 -82.5t-60.5 -217.5q0 -101 36 -175l326 416q-57 59 -141 59zM332 36q100 0 161 82t61 217q0 127 -55 209l-330 -422q61 -86 163 -86z
" />
    <glyph glyph-name="zero.dnom" horiz-adv-x="385" 
d="M193 366q69 0 111 -51.5t42 -135.5q0 -85 -42 -137t-111 -52t-111.5 52t-42.5 137q0 84 42.5 135.5t111.5 51.5zM193 26q51 0 81.5 41.5t30.5 111.5q0 69 -30.5 110.5t-81.5 41.5t-81.5 -41.5t-30.5 -110.5q0 -70 30.5 -111.5t81.5 -41.5z" />
    <glyph glyph-name="one.dnom" horiz-adv-x="221" 
d="M153 0h-40v312l-88 -53v41l103 64h25v-364z" />
    <glyph glyph-name="two.dnom" horiz-adv-x="320" 
d="M288 35v-35h-259v26l139 119q43 37 60 59.5t17 52.5q0 36 -24 57.5t-63 21.5q-41 0 -65.5 -25t-24.5 -67l-36 7q0 52 34.5 85.5t91.5 33.5q56 0 91 -30.5t35 -81.5q0 -39 -21.5 -68.5t-67.5 -68.5l-102 -86h195z" />
    <glyph glyph-name="three.dnom" horiz-adv-x="332" 
d="M235 184q31 -9 49 -31.5t18 -53.5q0 -47 -36 -78.5t-94 -31.5q-59 0 -98 33.5t-40 90.5l33 7q2 -46 31.5 -71.5t73.5 -25.5q42 0 67.5 21.5t25.5 55.5q0 32 -25.5 50.5t-67.5 18.5h-34v29h33q39 0 62.5 17t23.5 47q0 31 -25 51t-63 20q-41 0 -68 -24t-28 -66l-35 8
q2 52 38.5 83t91.5 31t90.5 -29t35.5 -74q0 -56 -59 -78z" />
    <glyph glyph-name="four.dnom" horiz-adv-x="357" 
d="M335 89h-63v-90h-37v90h-207v37l201 237h43v-241h63v-33zM235 122v196l-168 -196h168z" />
    <glyph glyph-name="five.dnom" horiz-adv-x="336" 
d="M91 219h91q56 0 90.5 -30t34.5 -80q0 -53 -37.5 -86t-98.5 -33q-54 0 -93 30t-45 76l38 6q6 -35 34 -56.5t66 -21.5q44 0 71.5 22.5t27.5 61.5q0 36 -26.5 57t-68.5 21h-121l7 174h228v-35h-193z" />
    <glyph glyph-name="six.dnom" horiz-adv-x="358" 
d="M194 232q56 0 90.5 -34t34.5 -87t-35.5 -87.5t-93.5 -34.5q-71 0 -109 46.5t-38 129.5q0 110 52 162q38 38 97 38q46 0 78 -22t40 -62l-38 -6q-13 57 -82 57q-43 0 -70 -29q-39 -43 -39 -130q15 27 45.5 43t67.5 16zM189 22q42 0 68 26.5t26 64.5t-26 63.5t-68 25.5
q-45 0 -71.5 -27t-26.5 -64q0 -38 28 -63.5t70 -25.5z" />
    <glyph glyph-name="seven.dnom" horiz-adv-x="272" 
d="M262 363v-29l-167 -335h-44l166 329h-210v35h255z" />
    <glyph glyph-name="eight.dnom" horiz-adv-x="346" 
d="M227 187q42 -10 65 -35.5t23 -59.5q0 -45 -39 -74t-102 -29q-65 0 -104 29t-39 74q0 75 90 95q-77 22 -77 83q0 42 37.5 68.5t92.5 26.5t91.5 -26.5t36.5 -68.5q0 -61 -75 -83zM80 267q0 -28 26.5 -46t67.5 -18q40 0 65 17.5t26 46.5q1 31 -24.5 50t-66.5 19t-67.5 -19
t-26.5 -50zM173 23q45 0 73 19.5t28 52.5q0 31 -27 52t-73 21q-47 0 -75 -20.5t-28 -52.5q0 -33 28 -52.5t74 -19.5z" />
    <glyph glyph-name="nine.dnom" horiz-adv-x="358" 
d="M169 365q71 0 109 -46t38 -129q0 -110 -52 -162q-39 -39 -98 -39q-46 0 -78 22.5t-40 62.5l38 6q15 -57 82 -57q43 0 70 29q39 43 39 130q-15 -27 -45.5 -43t-67.5 -16q-56 0 -90.5 34t-34.5 86q0 54 35.5 88t94.5 34zM170 152q44 0 71 27t27 64q0 39 -28 64.5t-70 25.5
t-68.5 -26.5t-26.5 -64.5t26.5 -64t68.5 -26z" />
    <glyph glyph-name="zero.numr" horiz-adv-x="385" 
d="M193 680q69 0 111 -51.5t42 -135.5q0 -85 -42 -137t-111 -52t-111.5 52t-42.5 137q0 84 42.5 135.5t111.5 51.5zM193 340q51 0 81.5 41.5t30.5 111.5q0 69 -30.5 110.5t-81.5 41.5t-81.5 -41.5t-30.5 -110.5q0 -70 30.5 -111.5t81.5 -41.5z" />
    <glyph glyph-name="one.numr" horiz-adv-x="221" 
d="M153 306h-40v312l-88 -53v41l103 64h25v-364z" />
    <glyph glyph-name="two.numr" horiz-adv-x="320" 
d="M288 345v-35h-259v26l139 119q43 37 60 59.5t17 52.5q0 36 -24 57.5t-63 21.5q-41 0 -65.5 -25t-24.5 -67l-36 7q0 52 34.5 85.5t91.5 33.5q56 0 91 -30.5t35 -81.5q0 -39 -21.5 -68.5t-67.5 -68.5l-102 -86h195z" />
    <glyph glyph-name="three.numr" horiz-adv-x="332" 
d="M235 499q31 -9 49 -31.5t18 -53.5q0 -47 -36 -78t-94 -31q-59 0 -98 33t-40 90l33 7q2 -46 31.5 -71.5t73.5 -25.5q42 0 67.5 21.5t25.5 55.5q0 32 -25.5 50.5t-67.5 18.5h-34v29h33q39 0 62.5 17t23.5 47q0 31 -25 51t-63 20q-41 0 -68 -24t-28 -66l-35 8q2 52 38.5 83
t91.5 31t90.5 -29t35.5 -74q0 -56 -59 -78z" />
    <glyph glyph-name="four.numr" horiz-adv-x="357" 
d="M335 396h-63v-89h-37v89h-207v37l201 237h43v-241h63v-33zM235 429v196l-168 -196h168z" />
    <glyph glyph-name="five.numr" horiz-adv-x="336" 
d="M91 529h91q56 0 90.5 -30t34.5 -80q0 -53 -37.5 -86t-98.5 -33q-54 0 -93 30t-45 76l38 6q6 -35 34 -56.5t66 -21.5q44 0 71.5 22.5t27.5 61.5q0 36 -26.5 57t-68.5 21h-121l7 174h228v-35h-193z" />
    <glyph glyph-name="six.numr" horiz-adv-x="358" 
d="M194 547q56 0 90.5 -34t34.5 -87t-35.5 -87t-93.5 -34q-71 0 -109 46t-38 129q0 110 52 162q38 38 97 38q46 0 78 -22t40 -62l-38 -6q-13 57 -82 57q-43 0 -70 -29q-39 -43 -39 -130q15 27 45.5 43t67.5 16zM189 337q42 0 68 26.5t26 64.5t-26 63.5t-68 25.5
q-45 0 -71.5 -27t-26.5 -64q0 -38 28 -63.5t70 -25.5z" />
    <glyph glyph-name="seven.numr" horiz-adv-x="272" 
d="M262 670v-29l-167 -334h-44l166 328h-210v35h255z" />
    <glyph glyph-name="eight.numr" horiz-adv-x="346" 
d="M227 502q42 -10 65 -35.5t23 -59.5q0 -45 -39 -73.5t-102 -28.5q-65 0 -104 28.5t-39 73.5q0 75 90 95q-77 22 -77 83q0 42 37.5 68.5t92.5 26.5t91.5 -26.5t36.5 -68.5q0 -61 -75 -83zM80 582q0 -28 26.5 -46t67.5 -18q40 0 65 17.5t26 46.5q1 31 -24.5 50t-66.5 19
t-67.5 -19t-26.5 -50zM173 338q45 0 73 19.5t28 52.5q0 31 -27 52t-73 21q-47 0 -75 -20.5t-28 -52.5q0 -33 28 -52.5t74 -19.5z" />
    <glyph glyph-name="nine.numr" horiz-adv-x="358" 
d="M169 680q71 0 109 -46t38 -129q0 -110 -52 -162q-38 -38 -98 -38q-46 0 -78 22t-40 62l38 6q15 -57 82 -57q43 0 70 29q39 43 39 130q-15 -27 -45.5 -43t-67.5 -16q-56 0 -90.5 34t-34.5 86q0 54 35.5 88t94.5 34zM170 467q44 0 71 27t27 64q0 39 -28 64.5t-70 25.5
t-68.5 -26t-26.5 -65q0 -38 26.5 -64t68.5 -26z" />
    <glyph glyph-name="backslash.case" horiz-adv-x="343" 
d="M314 0h-48l-236 670h47z" />
    <glyph glyph-name="periodcentered.case" horiz-adv-x="187" 
d="M94 368q16 0 27 -11t11 -26q0 -16 -10.5 -26.5t-27.5 -10.5t-28 10.5t-11 26.5q0 15 11.5 26t27.5 11z" />
    <glyph glyph-name="bullet.case" horiz-adv-x="385" 
d="M192 465q58 0 98 -39.5t40 -93.5q0 -57 -39.5 -94.5t-98.5 -37.5t-98 37.5t-39 94.5q0 54 39.5 93.5t97.5 39.5z" />
    <glyph glyph-name="colon.case" horiz-adv-x="187" 
d="M94 535q16 0 27 -11t11 -26q0 -16 -10.5 -26.5t-27.5 -10.5t-28 10.5t-11 26.5q0 15 11.5 26t27.5 11zM94 184q16 0 27 -11t11 -26q0 -16 -11 -26.5t-27 -10.5q-17 0 -28 10.5t-11 26.5q0 15 11.5 26t27.5 11z" />
    <glyph glyph-name="exclamdown.case" horiz-adv-x="260" 
d="M130 598q-16 0 -27.5 11.5t-11.5 26.5q0 16 11 26.5t28 10.5q16 0 27 -10.5t11 -26.5q0 -15 -11 -26.5t-27 -11.5zM104 31l2 450h49l1 -450v-31h-52v31z" />
    <glyph glyph-name="questiondown.case" horiz-adv-x="516" 
d="M266 601q-16 0 -27.5 11t-11.5 26q0 16 11 26.5t28 10.5q16 0 27 -10.5t11 -26.5q0 -15 -11 -26t-27 -11zM431 214l48 -8q-2 -94 -64 -154.5t-161 -60.5q-98 0 -158 56t-60 148q0 84 58 138.5t148 59.5v89h47v-128h-27q-75 0 -126.5 -44.5t-51.5 -114.5q0 -71 47 -115.5
t123 -44.5q78 0 126.5 49.5t50.5 129.5z" />
    <glyph glyph-name="semicolon.case" horiz-adv-x="212" 
d="M118 535q16 0 27.5 -11t11.5 -26q0 -16 -11 -26.5t-28 -10.5t-27.5 10.5t-10.5 26.5q0 15 11 26t27 11zM57 -132h-39l69 261h59v-3z" />
    <glyph glyph-name="slash.case" horiz-adv-x="373" 
d="M79 0h-47l261 670h47z" />
    <glyph glyph-name="braceleft.case" horiz-adv-x="432" 
d="M216 541v-98q0 -39 -18 -68.5t-50 -43.5q68 -29 68 -112v-90q0 -39 22.5 -62.5t59.5 -23.5h72v-43h-76q-57 0 -91.5 34.5t-34.5 90.5v90q0 41 -25.5 66.5t-66.5 27.5l-18 3v39l18 3q41 2 66.5 27t25.5 66v98q0 56 34.5 90.5t91.5 34.5h76v-43h-72q-37 0 -59.5 -23.5
t-22.5 -62.5z" />
    <glyph glyph-name="braceright.case" horiz-adv-x="432" 
d="M375 351v-39l-18 -3q-42 -2 -67 -27.5t-25 -66.5v-90q0 -56 -34.5 -90.5t-91.5 -34.5h-76v43h72q36 0 58.5 23.5t22.5 62.5v90q0 83 68 112q-32 14 -50 43.5t-18 68.5v98q0 39 -22.5 62.5t-58.5 23.5h-72v43h76q57 0 91.5 -34.5t34.5 -90.5v-98q0 -41 25 -66t67 -27z" />
    <glyph glyph-name="bracketleft.case" horiz-adv-x="384" 
d="M145 627v-584h177v-43h-226v670h226v-43h-177z" />
    <glyph glyph-name="bracketright.case" horiz-adv-x="384" 
d="M288 670v-670h-225v43h177v584h-177v43h225z" />
    <glyph glyph-name="parenleft.case" horiz-adv-x="321" 
d="M115 335q0 -183 144 -317l-29 -29q-167 143 -167 346t167 346l29 -29q-144 -134 -144 -317z" />
    <glyph glyph-name="parenright.case" horiz-adv-x="321" 
d="M63 652l29 29q167 -144 167 -346t-167 -346l-29 29q144 136 144 317t-144 317z" />
    <glyph glyph-name="emdash.case" horiz-adv-x="1040" 
d="M980 314h-920v40h920v-40z" />
    <glyph glyph-name="endash.case" horiz-adv-x="620" 
d="M560 314h-500v40h500v-40z" />
    <glyph glyph-name="hyphen.case" horiz-adv-x="441" 
d="M381 312h-321v44h321v-44z" />
    <glyph glyph-name="guillemotleft.case" horiz-adv-x="386" 
d="M25 322l127 178h51l-127 -178l127 -178h-51zM183 322l127 178h51l-127 -178l127 -178h-51z" />
    <glyph glyph-name="guillemotright.case" horiz-adv-x="386" 
d="M25 144l127 178l-127 178h51l127 -178l-127 -178h-51zM183 144l127 178l-127 178h51l127 -178l-127 -178h-51z" />
    <glyph glyph-name="guilsinglleft.case" horiz-adv-x="228" 
d="M25 322l127 178h51l-127 -178l127 -178h-51z" />
    <glyph glyph-name="guilsinglright.case" horiz-adv-x="228" 
d="M25 144l127 178l-127 178h51l127 -178l-127 -178h-51z" />
    <glyph glyph-name="cent.tf" 
d="M317 454v-419q58 4 103 34t61 82l45 -13q-18 -65 -75.5 -104.5t-132.5 -44.5v-119h-43v120q-96 9 -161 78.5t-65 176.5q0 104 65 174.5t161 80.5v130h43v-130q74 -5 131.5 -46t77.5 -107l-46 -15q-15 54 -60.5 86t-103.5 36zM97 245q0 -88 51 -144.5t128 -65.5v419
q-76 -9 -127.5 -66.5t-51.5 -142.5z" />
    <glyph glyph-name="dollar.tf" 
d="M534 193q0 -79 -57 -127t-151 -51v-115h-44v117q-89 8 -149.5 59t-67.5 128l50 11q7 -65 53 -105.5t115 -48.5v260l-54 13q-144 31 -144 148q0 75 54.5 121.5t142.5 51.5v115h44v-116q83 -7 135.5 -54.5t60.5 -116.5l-48 -10q-7 57 -47.5 93.5t-101.5 43.5v-250l58 -14
q151 -33 151 -153zM283 369v243q-65 -4 -105.5 -38.5t-40.5 -89.5q0 -46 28 -69.5t81 -36.5zM325 311v-252q73 2 116.5 38t43.5 94q0 48 -29 72t-84 37z" />
    <glyph glyph-name="Euro.tf" 
d="M331 36q71 0 122 49.5t74 139.5l49 -11q-23 -103 -88 -164t-157 -61q-96 0 -162.5 66t-87.5 181h-59v39h54q-3 29 -3 60q0 18 2 52h-53v39h58q19 119 86 187t165 68q92 0 157 -61.5t88 -165.5l-49 -10q-21 89 -73 140t-123 51q-76 0 -129 -55.5t-70 -153.5h262l-10 -39
h-258q-2 -34 -2 -52q0 -31 3 -60h229l-9 -39h-214q19 -94 71 -147t127 -53z" />
    <glyph glyph-name="florin.tf" 
d="M472 637q-54 0 -89.5 -33t-46.5 -90l-29 -159h205v-42h-212l-65 -356q-10 -56 -47.5 -89t-91.5 -33q-41 0 -72 23l19 40q23 -17 54 -17q34 0 59 21t31 55l64 356h-128v42h135l29 159q15 76 64.5 121.5t124.5 45.5q65 0 108 -40l-21 -38q-37 34 -91 34z" />
    <glyph glyph-name="sterling.tf" 
d="M562 46v-46h-524v31l84 12v245h-84v46h84v135q0 95 60 153.5t157 58.5t156 -57t61 -152l-47 -8q-3 79 -49 124t-121 45q-74 0 -120 -45t-46 -119v-135h262v-46h-262v-242h389z" />
    <glyph glyph-name="yen.tf" 
d="M352 301h172v-40h-194v-88h194v-40h-194v-133h-51v133h-193v40h193v88h-193v40h171l-236 369h57l226 -360l226 360h59z" />
    <glyph glyph-name="approxequal.tf" 
d="M520 421v-47q-42 -23 -97 -23q-50 0 -113.5 30t-109.5 30q-73 0 -110 -36v45q39 33 110 33q47 0 112.5 -29.5t111.5 -29.5q58 0 96 27zM520 257v-47q-42 -23 -97 -23q-50 0 -113.5 30t-109.5 30q-73 0 -110 -36v45q39 33 110 33q47 0 112.5 -29.5t111.5 -29.5q58 0 96 27
z" />
    <glyph glyph-name="divide.tf" 
d="M304 522q16 0 27 -11.5t11 -26.5q0 -16 -11 -26.5t-27 -10.5q-17 0 -28 10.5t-11 26.5q0 15 11.5 26.5t27.5 11.5zM520 283h-430v44h430v-44zM304 158q16 0 27 -11t11 -26q0 -16 -11 -26.5t-27 -10.5q-17 0 -28 10.5t-11 26.5q0 15 11.5 26t27.5 11z" />
    <glyph glyph-name="equal.tf" 
d="M520 387h-430v44h430v-44zM520 203h-430v43h430v-43z" />
    <glyph glyph-name="greater.tf" 
d="M435 311l-298 138v52l361 -168v-44l-361 -168v51z" />
    <glyph glyph-name="greaterequal.tf" 
d="M423 343l-285 110v51l347 -141v-41l-347 -140v50zM482 92h-344v44h344v-44z" />
    <glyph glyph-name="less.tf" 
d="M473 121l-360 168v44l360 168v-52l-298 -138l298 -139v-51z" />
    <glyph glyph-name="lessequal.tf" 
d="M473 182l-348 140v41l348 141v-51l-285 -110l285 -111v-50zM473 136v-44h-345v44h345z" />
    <glyph glyph-name="minus.tf" 
d="M520 283h-430v44h430v-44z" />
    <glyph glyph-name="multiply.tf" 
d="M337 305l145 -144l-32 -33l-145 145l-145 -145l-32 33l145 144l-145 145l32 32l145 -145l145 145l32 -32z" />
    <glyph glyph-name="notequal.tf" 
d="M374 387l-89 -141h235v-43h-263l-63 -100h-49l64 100h-119v43h146l90 141h-236v44h264l64 101h48l-64 -101h118v-44h-146z" />
    <glyph glyph-name="plus.tf" 
d="M520 283h-193v-194h-44v194h-193v44h193v194h44v-194h193v-44z" />
    <glyph glyph-name="plusminus.tf" 
d="M520 367v-44h-193v-179h-44v179h-193v44h193v184h44v-184h193zM90 44h430v-44h-430v44z" />
    <glyph glyph-name="bar.case" horiz-adv-x="241" 
d="M145 -41h-49v751h49v-751z" />
    <glyph glyph-name="at.case" horiz-adv-x="967" 
d="M486 721q174 0 291.5 -109t117.5 -276q0 -59 -14.5 -108.5t-51 -84.5t-90.5 -35q-50 0 -81 25.5t-33 69.5q-53 -90 -161 -90q-83 0 -140 57t-57 147q0 91 57 148t140 57q52 0 94 -24t67 -67v81h37v-301q0 -32 22 -51.5t57 -19.5q58 0 87.5 57.5t29.5 137.5
q0 154 -107 254t-265 100q-162 0 -269.5 -104.5t-107.5 -262.5q0 -157 106 -262.5t257 -105.5q60 0 125 17.5t111 48.5l19 -31q-47 -32 -118 -50.5t-136 -18.5q-167 0 -283.5 114t-116.5 287t117.5 286.5t295.5 113.5zM468 149q66 0 111.5 47t45.5 122t-45.5 120.5
t-111.5 45.5q-67 0 -114 -46t-47 -120q0 -76 47 -122.5t114 -46.5z" />
    <glyph glyph-name="caron.alt" horiz-adv-x="600" 
d="M313 491h-40v159h50z" />
    </font>
</defs>
</svg>
