<?xml version="1.0" standalone="no"?>
<!DOCTYPE svg PUBLIC "-//W3C//DTD SVG 1.1//EN" "http://www.w3.org/Graphics/SVG/1.1/DTD/svg11.dtd" >
<svg xmlns="http://www.w3.org/2000/svg" xmlns:xlink="http://www.w3.org/1999/xlink" version="1.1">
<metadata>
Created by FontForge 20170731 at Thu Apr 20 11:09:50 2023
 By Aleksey,,,
Copyright (c) 2014 by Rene' Bieder. All rights reserved.
</metadata>
<defs>
<font id="GalanoGrotesque-Medium" horiz-adv-x="1249" >
  <font-face 
    font-family="GalanoGrotesque-Medium"
    font-weight="400"
    font-stretch="normal"
    units-per-em="2048"
    panose-1="0 0 6 0 0 0 0 0 0 0"
    ascent="1638"
    descent="-410"
    x-height="1016"
    cap-height="1372"
    bbox="-365 -424 2449 1919"
    underline-thickness="102"
    underline-position="-204"
    unicode-range="U+0020-FB02"
  />
<missing-glyph horiz-adv-x="1597" 
d="M801 1401q295 0 503 -205q207 -204 207 -514q0 -306 -207 -509q-208 -204 -503 -204q-297 0 -506 204t-209 509q0 308 209 514q208 205 506 205zM801 1307q-254 0 -434 -178q-179 -177 -179 -445q0 -266 179 -443q180 -178 434 -178q250 0 430 178q178 177 178 443
q0 268 -178 445q-180 178 -430 178zM1071 819q0 -90 -62 -149t-165 -70v-76h-115v172h72q66 0 107 34q42 34 42 89q0 58 -41 96q-40 37 -106 37q-71 0 -114 -42q-44 -43 -50 -111l-119 20q5 103 84 173q80 71 199 71q120 0 194 -68t74 -176zM784 436q34 0 56 -21t22 -53
q0 -33 -22 -55t-56 -22q-33 0 -54 22t-21 55q0 32 22 53q23 21 53 21z" />
    <glyph glyph-name="fi" unicode="fi" horiz-adv-x="1294" 
d="M1118 1016v-1016h-213v840h-485v-840h-213v840h-166v176h166v121q0 170 103 269q104 99 276 99q102 0 184 -43l-49 -172q-64 25 -121 25q-83 0 -132 -47q-48 -46 -48 -131v-121h698zM1012 1190q-61 0 -99 37q-39 37 -39 94q0 55 39 94t99 39q57 0 96 -39t39 -94
q0 -56 -38 -94q-37 -37 -97 -37z" />
    <glyph glyph-name="fl" unicode="fl" horiz-adv-x="1277" 
d="M420 1016h338v-176h-338v-840h-213v840h-166v176h166v121q0 170 102 269t273 99q91 0 174 -37l-51 -174q-53 21 -109 21q-79 0 -128 -47q-48 -46 -48 -131v-121zM1118 1475v-1475h-215v1475h215z" />
    <glyph glyph-name=".notdef" horiz-adv-x="1597" 
d="M801 1401q295 0 503 -205q207 -204 207 -514q0 -306 -207 -509q-208 -204 -503 -204q-297 0 -506 204t-209 509q0 308 209 514q208 205 506 205zM801 1307q-254 0 -434 -178q-179 -177 -179 -445q0 -266 179 -443q180 -178 434 -178q250 0 430 178q178 177 178 443
q0 268 -178 445q-180 178 -430 178zM1071 819q0 -90 -62 -149t-165 -70v-76h-115v172h72q66 0 107 34q42 34 42 89q0 58 -41 96q-40 37 -106 37q-71 0 -114 -42q-44 -43 -50 -111l-119 20q5 103 84 173q80 71 199 71q120 0 194 -68t74 -176zM784 436q34 0 56 -21t22 -53
q0 -33 -22 -55t-56 -22q-33 0 -54 22t-21 55q0 32 22 53q23 21 53 21z" />
    <glyph glyph-name=".null" horiz-adv-x="0" 
 />
    <glyph glyph-name="nonmarkingreturn" horiz-adv-x="681" 
 />
    <glyph glyph-name="space" unicode=" " horiz-adv-x="505" 
 />
    <glyph glyph-name="exclam" unicode="!" horiz-adv-x="571" 
d="M403 1372v-63l-8 -881h-217l-8 881v63h233zM285 252q56 0 96 -38q39 -38 39 -91q0 -55 -39 -93q-40 -38 -96 -38q-58 0 -96 38q-37 37 -37 93q0 54 37 91q38 38 96 38z" />
    <glyph glyph-name="quotedbl" unicode="&#x22;" horiz-adv-x="780" 
d="M109 782v590h215v-590h-215zM457 782v590h215v-590h-215z" />
    <glyph glyph-name="numbersign" unicode="#" horiz-adv-x="1404" 
d="M1092 831l-80 -321h219l-49 -178h-215l-82 -332h-191l84 332h-323l-82 -332h-191l82 332h-217l49 178h213l80 321h-217l47 179h215l90 362h191l-90 -362h323l90 362h189l-90 -362h219l-51 -179h-213zM903 831h-323l-80 -321h321z" />
    <glyph glyph-name="dollar" unicode="$" horiz-adv-x="1218" 
d="M1112 414q0 -164 -112 -270q-111 -105 -293 -121v-228h-183v236q-175 27 -294 133q-120 107 -132 268l217 43q15 -206 217 -258v395l-73 17q-144 28 -235 108q-93 83 -93 232q0 157 108 259t285 120v229h183v-234q167 -27 272 -130q105 -104 117 -259l-213 -39
q-1 92 -54 157q-51 63 -129 87v-379l82 -16q330 -73 330 -350zM532 817v350q-84 -17 -132 -66t-48 -120q0 -122 158 -160zM700 575v-366q95 15 150 67t55 129q0 129 -176 164z" />
    <glyph glyph-name="percent" unicode="%" horiz-adv-x="1720" 
d="M432 1401q143 0 241 -91q99 -92 99 -239q0 -143 -99 -235q-101 -93 -241 -93t-241 93q-99 92 -99 235q0 147 99 239q98 91 241 91zM270 0l1016 1372h146l-1016 -1372h-146zM432 1253q-72 0 -125 -50t-53 -130q0 -82 53 -132t125 -50t125 50t53 132q0 80 -53 130
q-55 50 -125 50zM1288 629q143 0 241 -91q99 -92 99 -237q0 -147 -99 -238q-100 -92 -241 -92q-140 0 -240 92t-100 238q0 145 100 237q98 91 240 91zM1288 483q-72 0 -125 -50t-53 -132q0 -80 53 -130t125 -50t125 50t53 130q0 82 -53 132q-55 50 -125 50z" />
    <glyph glyph-name="ampersand" unicode="&#x26;" horiz-adv-x="1445" 
d="M1274 -49l-207 178q-170 -158 -424 -158q-237 0 -382 116q-144 115 -144 306q0 234 248 359q-107 131 -107 280q0 164 118 266q120 103 298 103t288 -102t132 -275l-201 -37q-21 234 -219 234q-91 0 -152 -52q-59 -50 -59 -141q0 -80 52 -151q54 -74 187 -185l324 -278
q33 89 33 194v99h190v-99q0 -180 -69 -325l219 -189zM643 152q161 0 277 104l-385 332l-43 37q-166 -84 -166 -232q0 -109 87 -175t230 -66z" />
    <glyph glyph-name="quotesingle" unicode="'" horiz-adv-x="432" 
d="M109 782v590h215v-590h-215z" />
    <glyph glyph-name="parenleft" unicode="(" horiz-adv-x="735" 
d="M489 1542l150 -133q-173 -175 -242 -345q-69 -171 -69 -378q0 -208 69 -377q69 -170 242 -346l-150 -131q-391 354 -391 854q0 499 391 856z" />
    <glyph glyph-name="parenright" unicode=")" horiz-adv-x="735" 
d="M98 1409l150 133q391 -357 391 -856q0 -500 -391 -854l-150 131q173 176 242 346q70 172 70 377t-70 378q-69 170 -242 345z" />
    <glyph glyph-name="asterisk" unicode="*" horiz-adv-x="894" 
d="M582 1104l233 -135l-65 -115l-228 131v-252h-149v252l-228 -131l-65 115l233 135l-233 135l65 117l228 -131v250h149v-250l228 131l65 -117z" />
    <glyph glyph-name="plus" unicode="+" horiz-adv-x="1187" 
d="M1055 530h-367v-372h-188v372h-367v189h367v373h188v-373h367v-189z" />
    <glyph glyph-name="comma" unicode="," horiz-adv-x="473" 
d="M188 -270h-161l129 544h247v-6z" />
    <glyph glyph-name="hyphen" unicode="-" horiz-adv-x="913" 
d="M791 430h-668v184h668v-184z" />
    <glyph glyph-name="period" unicode="." horiz-adv-x="452" 
d="M227 252q58 0 96 -38q37 -37 37 -91q0 -56 -37 -93q-38 -38 -96 -38q-56 0 -96 38q-39 38 -39 93q0 53 39 91q40 38 96 38z" />
    <glyph glyph-name="slash" unicode="/" horiz-adv-x="804" 
d="M786 1518l-589 -1665h-179l590 1665h178z" />
    <glyph glyph-name="zero" unicode="0" horiz-adv-x="1363" 
d="M682 1401q261 0 420 -198q160 -199 160 -517t-160 -517q-159 -198 -420 -198t-420 198q-160 199 -160 517t160 517q159 198 420 198zM682 174q162 0 259 141q97 140 97 371t-97 371q-98 141 -259 141q-162 0 -259 -141q-97 -140 -97 -371t97 -371q97 -141 259 -141z" />
    <glyph glyph-name="one" unicode="1" horiz-adv-x="743" 
d="M575 1372v-1372h-213v1112l-352 -188v198l430 250h135z" />
    <glyph glyph-name="two" unicode="2" horiz-adv-x="1062" 
d="M993 199v-199h-927v141l475 459q84 80 90 86q25 25 67 78q43 54 57 100q15 50 15 109q0 105 -70 172q-68 65 -180 65q-121 0 -191 -73q-72 -75 -79 -215l-201 41q7 200 137 319t336 119q205 0 332 -118t127 -306q0 -138 -71 -250t-238 -270l-271 -258h592z" />
    <glyph glyph-name="three" unicode="3" horiz-adv-x="1183" 
d="M879 696q95 -34 147 -111q53 -77 53 -186q0 -191 -132 -310q-131 -118 -345 -118t-350 121q-138 122 -154 320l207 41q15 -137 90 -212q77 -77 207 -77q124 0 200 64q77 65 77 169q0 97 -68 154q-67 57 -188 57h-148v176h135q111 0 178 56q66 56 66 147q0 100 -70 161
q-69 60 -184 60q-120 0 -197 -72q-76 -72 -84 -212l-202 41q16 193 147 315q130 121 336 121q204 0 331 -115q126 -114 126 -299q0 -102 -47 -179q-47 -78 -131 -112z" />
    <glyph glyph-name="four" unicode="4" horiz-adv-x="1265" 
d="M1208 303h-192v-303h-215v303h-744v205l672 864h287v-889h192v-180zM801 483v668l-502 -668h502z" />
    <glyph glyph-name="five" unicode="5" horiz-adv-x="1161" 
d="M369 858h245q209 0 335 -114t126 -312q0 -206 -136 -333q-137 -128 -359 -128q-215 0 -359 126q-143 125 -143 347l213 41q0 -153 82 -234q83 -81 213 -81q124 0 201 71t77 187q0 108 -72 171t-194 63h-444l26 710h836v-198h-633z" />
    <glyph glyph-name="six" unicode="6" 
d="M674 889q218 0 345 -126q128 -126 128 -327q0 -203 -137 -334t-355 -131q-255 0 -404 182t-149 504q0 400 187 590q151 154 373 154q167 0 288 -82q122 -83 162 -232l-211 -40q-49 161 -248 161q-132 0 -223 -98q-128 -139 -121 -395q62 82 158 127q100 47 207 47z
M649 168q116 0 198 77q81 77 81 193t-81 193q-80 76 -198 76q-117 0 -196 -78q-80 -78 -80 -195q0 -114 82 -190t194 -76z" />
    <glyph glyph-name="seven" unicode="7" horiz-adv-x="1021" 
d="M983 1372v-155l-504 -1217h-241l505 1174h-704v198h944z" />
    <glyph glyph-name="eight" unicode="8" horiz-adv-x="1171" 
d="M823 698q133 -40 204 -131t71 -200q0 -176 -142 -286t-368 -110q-229 0 -372 110q-142 109 -142 286q0 111 71 200q73 91 205 131q-116 44 -175 130q-60 87 -60 202q0 166 130 268q132 103 343 103q210 0 340 -103q129 -102 129 -268q0 -112 -60 -201q-59 -87 -174 -131z
M586 1223q-112 0 -182 -57t-70 -154q0 -96 69 -152q68 -55 181 -55t185 57q73 58 73 154q0 93 -74 150q-73 57 -182 57zM584 158q117 0 195 59q79 60 79 164q0 100 -77 160q-75 59 -195 59t-194 -59q-75 -60 -75 -164q0 -103 75 -161q74 -58 192 -58z" />
    <glyph glyph-name="nine" unicode="9" 
d="M596 1401q256 0 403 -181q148 -183 148 -505q0 -400 -184 -590q-151 -154 -373 -154q-171 0 -290 82q-120 82 -163 232l211 41q51 -160 250 -160q131 0 221 96q129 140 121 397q-58 -81 -155 -127q-99 -47 -207 -47q-218 0 -347 126t-129 325q0 202 138 334
q137 131 356 131zM600 666q120 0 198 77q79 78 79 195q0 116 -81 191t-196 75q-117 0 -198 -78q-80 -77 -80 -192q0 -116 80 -192t198 -76z" />
    <glyph glyph-name="colon" unicode=":" horiz-adv-x="452" 
d="M227 969q58 0 96 -38q37 -37 37 -91q0 -55 -37 -92t-96 -37q-58 0 -96 37q-39 38 -39 92t39 91q40 38 96 38zM227 252q58 0 96 -38q37 -37 37 -91q0 -56 -37 -93q-38 -38 -96 -38q-56 0 -96 38q-39 38 -39 93q0 53 39 91q40 38 96 38z" />
    <glyph glyph-name="semicolon" unicode=";" horiz-adv-x="514" 
d="M287 969q56 0 96 -38q39 -37 39 -91t-39 -92q-38 -37 -96 -37q-59 0 -96 37t-37 92q0 54 37 91q38 38 96 38zM188 -270h-161l129 544h247v-6z" />
    <glyph glyph-name="less" unicode="&#x3c;" horiz-adv-x="907" 
d="M829 242l-763 307v221l763 311v-227l-512 -192l512 -197v-223z" />
    <glyph glyph-name="equal" unicode="=" horiz-adv-x="1187" 
d="M1055 760h-922v186h922v-186zM1055 365h-922v186h922v-186z" />
    <glyph glyph-name="greater" unicode="&#x3e;" horiz-adv-x="907" 
d="M594 662l-512 192v227l764 -311v-221l-764 -307v223z" />
    <glyph glyph-name="question" unicode="?" horiz-adv-x="1081" 
d="M557 1401q210 0 337 -121q128 -122 128 -315q0 -160 -109 -267t-286 -125v-135h-197v299h123q113 0 188 64q74 63 74 164q0 108 -72 177q-71 68 -186 68q-121 0 -196 -75q-76 -76 -91 -203l-202 39q11 181 146 305q137 125 343 125zM526 252q58 0 96 -38q37 -37 37 -91
q0 -56 -37 -93q-38 -38 -96 -38q-56 0 -96 38q-39 38 -39 93q0 53 39 91q40 38 96 38z" />
    <glyph glyph-name="at" unicode="@" horiz-adv-x="1947" 
d="M1358 969v-592q0 -55 38 -88t95 -33q98 0 148 109q51 111 51 249q0 289 -204 475q-203 185 -503 185q-310 0 -518 -202q-207 -201 -207 -507q0 -304 205 -505t498 -201q282 0 495 155l72 -112q-105 -81 -259 -128q-151 -46 -304 -46q-354 0 -600 237t-246 598t247 599
q248 239 617 239q353 0 601 -221q247 -220 247 -555q0 -123 -33 -231q-33 -107 -118 -186t-210 -79q-186 0 -239 141q-102 -135 -299 -135q-176 0 -294 117t-118 305q0 191 119 310q118 118 293 118q177 0 285 -125v109h141zM952 279q110 0 187 76q78 77 78 204
q0 125 -78 202q-79 77 -187 77q-111 0 -188 -76q-78 -76 -78 -203q0 -128 79 -204t187 -76z" />
    <glyph glyph-name="A" unicode="A" horiz-adv-x="1433" 
d="M1423 0h-237l-135 319h-668l-135 -319h-238l604 1372h205zM965 520l-248 584l-248 -584h496z" />
    <glyph glyph-name="B" unicode="B" horiz-adv-x="1359" 
d="M1006 707v-9q105 -12 182 -98q76 -85 76 -223q0 -172 -112 -275q-111 -102 -323 -102h-667v1372h653q187 0 297 -101q111 -102 111 -270q0 -119 -67 -200q-66 -79 -150 -94zM381 1184v-406h410q97 0 158 59t61 152q0 85 -61 140t-156 55h-412zM381 188h426q107 0 170 58
q61 57 61 151q0 93 -62 149t-163 56h-432v-414z" />
    <glyph glyph-name="C" unicode="C" horiz-adv-x="1576" 
d="M813 178q166 0 287 88t166 258l213 -45q-56 -239 -238 -373q-183 -135 -428 -135q-299 0 -507 207t-208 508q0 299 208 507t507 208q244 0 426 -133q183 -133 240 -359l-213 -61q-45 170 -166 258t-287 88q-209 0 -351 -146q-143 -148 -143 -362q0 -213 143 -361
q142 -147 351 -147z" />
    <glyph glyph-name="D" unicode="D" horiz-adv-x="1495" 
d="M162 1372h479q348 0 552 -191q206 -192 206 -495t-206 -495q-204 -191 -552 -191h-479v1372zM381 199h260q245 0 391 135t146 352t-146 352q-147 136 -391 136h-260v-975z" />
    <glyph glyph-name="E" unicode="E" horiz-adv-x="1302" 
d="M1184 199v-199h-1022v1372h1020v-198h-801v-388h739v-196h-739v-391h803z" />
    <glyph glyph-name="F" unicode="F" horiz-adv-x="1214" 
d="M381 1174v-408h709v-199h-709v-567h-219v1372h1003v-198h-784z" />
    <glyph glyph-name="G" unicode="G" horiz-adv-x="1609" 
d="M752 778h755q4 -65 4 -94q0 -306 -194 -509q-195 -204 -498 -204t-512 207t-209 508q0 298 207 507q207 208 508 208q225 0 404 -107q176 -105 249 -299l-198 -69q-130 268 -455 268q-207 0 -349 -146t-142 -362q0 -217 145 -362q146 -146 358 -146q186 0 314 110
q127 109 157 290h-544v200z" />
    <glyph glyph-name="H" unicode="H" horiz-adv-x="1503" 
d="M1341 1372v-1372h-219v590h-741v-590h-219v1372h219v-581h741v581h219z" />
    <glyph glyph-name="I" unicode="I" horiz-adv-x="542" 
d="M381 0h-219v1372h219v-1372z" />
    <glyph glyph-name="J" unicode="J" horiz-adv-x="1220" 
d="M1073 1372v-880q0 -230 -144 -375q-144 -146 -376 -146q-210 0 -347 122t-167 325l209 43q18 -132 97 -211q80 -80 208 -80q133 0 216 90q83 91 83 232v880h221z" />
    <glyph glyph-name="K" unicode="K" horiz-adv-x="1384" 
d="M1358 0h-297l-604 578h-76v-578h-219v1372h219v-594h59l600 594h273l-686 -688z" />
    <glyph glyph-name="L" unicode="L" horiz-adv-x="1206" 
d="M1130 199v-199h-968v1372h219v-1173h749z" />
    <glyph glyph-name="M" unicode="M" horiz-adv-x="1826" 
d="M1665 1372v-1372h-213v877l-471 -877h-135l-471 877v-877h-213v1372h192l559 -1038l562 1038h190z" />
    <glyph glyph-name="N" unicode="N" horiz-adv-x="1558" 
d="M1397 1372v-1372h-187l-829 985v-985h-219v1372h186l828 -1001v1001h221z" />
    <glyph glyph-name="O" unicode="O" horiz-adv-x="1626" 
d="M813 1401q300 0 509 -209q208 -208 208 -508q0 -299 -208 -506t-509 -207t-508 207t-207 506q0 301 207 509t508 208zM813 178q208 0 352 146t144 360q0 217 -144 364q-143 146 -352 146t-351 -146q-143 -148 -143 -364q0 -214 143 -360t351 -146z" />
    <glyph glyph-name="P" unicode="P" horiz-adv-x="1347" 
d="M162 1372h618q226 0 360 -122t134 -320q0 -201 -134 -324q-133 -123 -360 -123h-399v-483h-219v1372zM381 684h399q126 0 201 67q74 66 74 179q0 108 -74 176t-201 68h-399v-490z" />
    <glyph glyph-name="Q" unicode="Q" horiz-adv-x="1626" 
d="M1364 -332l-297 348q-123 -45 -254 -45q-301 0 -508 207t-207 506q0 301 207 509t508 208q300 0 509 -209q208 -208 208 -508q0 -163 -69 -307q-70 -145 -189 -244l262 -311zM319 684q0 -214 143 -360t351 -146t352 146t144 360q0 217 -144 364q-143 146 -352 146
t-351 -146q-143 -148 -143 -364z" />
    <glyph glyph-name="R" unicode="R" horiz-adv-x="1376" 
d="M1341 0h-272l-489 547h-199v-547h-219v1372h645q211 0 341 -114t130 -300q0 -176 -118 -287q-119 -112 -314 -122zM381 745h426q112 0 182 59t70 154t-70 156q-69 60 -182 60h-426v-429z" />
    <glyph glyph-name="S" unicode="S" horiz-adv-x="1298" 
d="M641 1401q207 0 349 -105q142 -104 179 -282l-219 -45q-18 109 -104 175t-209 66q-122 0 -195 -58t-73 -151q0 -71 42 -112q44 -42 132 -60l297 -63q352 -78 352 -375q0 -192 -144 -306t-382 -114q-227 0 -385 108q-159 109 -183 300l234 49q24 -130 119 -196t235 -66
q136 0 212 58q77 59 77 155q0 78 -44 119q-43 40 -149 63l-299 62q-346 79 -346 372q0 183 138 294q139 112 366 112z" />
    <glyph glyph-name="T" unicode="T" horiz-adv-x="1280" 
d="M1233 1174h-483v-1174h-222v1174h-481v198h1186v-198z" />
    <glyph glyph-name="U" unicode="U" horiz-adv-x="1466" 
d="M1319 1372v-766q0 -283 -160 -460q-159 -175 -420 -175q-266 0 -429 175t-163 460v766h220v-766q0 -192 102 -308t270 -116q162 0 261 117q100 118 100 307v766h219z" />
    <glyph glyph-name="V" unicode="V" horiz-adv-x="1458" 
d="M1432 1372l-596 -1372h-211l-596 1372h241l459 -1075l459 1075h244z" />
    <glyph glyph-name="W" unicode="W" horiz-adv-x="1961" 
d="M1933 1372l-411 -1372h-234l-307 1020l-309 -1020h-234l-409 1372h229l301 -1034l315 1034h211l316 -1034l301 1034h231z" />
    <glyph glyph-name="X" unicode="X" horiz-adv-x="1325" 
d="M1028 0l-364 545l-367 -545h-268l467 688l-463 684h268l363 -538l360 538h268l-465 -684l469 -688h-268z" />
    <glyph glyph-name="Y" unicode="Y" horiz-adv-x="1394" 
d="M803 459v-459h-219v455l-555 917h243l422 -688l420 688h252z" />
    <glyph glyph-name="Z" unicode="Z" horiz-adv-x="1280" 
d="M1186 188v-188h-1077v141l786 1043h-764v188h1045v-164l-756 -1020h766z" />
    <glyph glyph-name="bracketleft" unicode="[" horiz-adv-x="815" 
d="M369 1333v-1317h350v-184h-557v1686h557v-185h-350z" />
    <glyph glyph-name="backslash" unicode="\" horiz-adv-x="804" 
d="M786 -147h-178l-590 1665h179z" />
    <glyph glyph-name="bracketright" unicode="]" horiz-adv-x="815" 
d="M653 1518v-1686h-555v184h351v1317h-351v185h555z" />
    <glyph glyph-name="asciicircum" unicode="^" horiz-adv-x="858" 
d="M236 909h-189l307 463h152l307 -463h-190l-193 287z" />
    <glyph glyph-name="underscore" unicode="_" horiz-adv-x="1071" 
d="M1030 -293h-989v178h989v-178z" />
    <glyph glyph-name="grave" unicode="`" horiz-adv-x="1228" 
d="M571 1452l150 -291h-184l-215 291h249z" />
    <glyph glyph-name="a" unicode="a" horiz-adv-x="1316" 
d="M1155 1016v-1016h-213v117q-140 -146 -369 -146q-206 0 -355 151q-148 149 -148 386q0 235 149 385q150 151 354 151q230 0 369 -145v117h213zM608 160q134 0 234 97t100 251t-100 251t-234 97q-142 0 -237 -95t-95 -253t95 -253t237 -95z" />
    <glyph glyph-name="b" unicode="b" horiz-adv-x="1320" 
d="M743 1044q205 0 355 -151q149 -150 149 -385q0 -237 -148 -386q-149 -151 -356 -151q-228 0 -368 146v-117h-213v1475h213v-576q139 145 368 145zM709 160q142 0 237 95q94 94 94 253t-94 253q-95 95 -237 95q-134 0 -234 -97t-100 -251t100 -251t234 -97z" />
    <glyph glyph-name="c" unicode="c" horiz-adv-x="1181" 
d="M610 168q227 0 299 213l197 -51q-40 -160 -179 -260q-138 -99 -317 -99q-223 0 -380 151q-156 150 -156 386q0 234 156 385q155 151 380 151q176 0 312 -97q138 -99 184 -259l-205 -59q-29 109 -106 164t-185 55q-141 0 -234 -95t-93 -245q0 -153 92 -247q92 -93 235 -93
z" />
    <glyph glyph-name="d" unicode="d" horiz-adv-x="1320" 
d="M1161 1475v-1475h-215v115q-144 -144 -368 -144q-205 0 -355 152q-149 150 -149 385t149 385q150 151 355 151q227 0 368 -145v576h215zM612 160q134 0 234 96t100 252q0 154 -100 251t-234 97q-140 0 -235 -96q-94 -95 -94 -252q0 -159 94 -253q95 -95 235 -95z" />
    <glyph glyph-name="e" unicode="e" horiz-adv-x="1181" 
d="M1108 530v-73h-823q15 -138 102 -219q88 -82 205 -82q210 0 299 176l190 -41q-62 -158 -189 -239q-128 -81 -300 -81q-213 0 -366 150q-152 149 -152 385q0 239 152 388q153 150 374 150q206 0 353 -144t155 -370zM600 856q-108 0 -197 -65q-89 -66 -112 -183h598
q-24 121 -103 185q-78 63 -186 63z" />
    <glyph glyph-name="f" unicode="f" horiz-adv-x="743" 
d="M758 840h-338v-840h-213v840h-166v176h166v121q0 170 102 269t273 99q91 0 174 -37l-51 -174q-53 21 -109 21q-79 0 -128 -47q-48 -46 -48 -131v-121h338v-176z" />
    <glyph glyph-name="g" unicode="g" horiz-adv-x="1290" 
d="M1128 1016v-926q0 -225 -142 -352t-384 -127q-365 0 -496 244l175 129q60 -94 132 -138q71 -43 189 -43q147 0 233 85q87 85 87 233v65q-121 -127 -351 -127q-198 0 -348 144q-149 143 -149 350t148 348t349 141q230 0 351 -127v101h206zM606 244q129 0 222 87
q94 88 94 222q0 137 -94 223t-222 86q-140 0 -232 -85q-93 -85 -93 -224q0 -137 93 -223q94 -86 232 -86z" />
    <glyph glyph-name="h" unicode="h" horiz-adv-x="1271" 
d="M727 1044q183 0 295 -119q113 -121 113 -311v-614h-215v571q0 123 -67 201q-66 76 -175 76q-141 0 -222 -96t-81 -283v-469h-213v1475h213v-584q129 153 352 153z" />
    <glyph glyph-name="i" unicode="i" horiz-adv-x="567" 
d="M285 1454q57 0 96 -39t39 -94q0 -56 -38 -94q-37 -37 -97 -37q-61 0 -99 37q-39 37 -39 94q0 55 39 94t99 39zM391 0h-213v1016h213v-1016z" />
    <glyph glyph-name="j" unicode="j" horiz-adv-x="595" 
d="M311 1454q57 0 98 -39q40 -39 40 -94q0 -57 -39 -94q-38 -37 -99 -37q-60 0 -97 37q-38 38 -38 94q0 55 39 94t96 39zM-43 -332l41 187q57 -23 96 -23q51 0 83 29t32 73v1082h213v-1110q0 -123 -76 -199t-201 -76q-98 0 -188 37z" />
    <glyph glyph-name="k" unicode="k" horiz-adv-x="1200" 
d="M1194 0h-289l-469 422h-61v-422h-213v1475h213v-842h63l424 383h273l-533 -492z" />
    <glyph glyph-name="l" unicode="l" horiz-adv-x="536" 
d="M375 0h-213v1475h213v-1475z" />
    <glyph glyph-name="m" unicode="m" horiz-adv-x="1941" 
d="M1417 1044q164 0 274 -110q111 -111 111 -287v-647h-211v604q0 112 -64 177q-65 67 -165 67q-128 0 -201 -88q-74 -89 -74 -256v-504h-213v604q0 112 -64 177q-65 67 -165 67q-126 0 -198 -88t-72 -256v-504h-213v1016h213v-115q116 143 325 143q112 0 200 -49
q89 -50 138 -137q134 186 379 186z" />
    <glyph glyph-name="n" unicode="n" horiz-adv-x="1269" 
d="M727 1044q183 0 295 -119q113 -121 113 -311v-614h-215v571q0 123 -67 201q-66 76 -175 76q-141 0 -222 -96t-81 -283v-469h-213v1016h213v-125q129 153 352 153z" />
    <glyph glyph-name="o" unicode="o" horiz-adv-x="1239" 
d="M621 1038q231 0 386 -148q156 -148 156 -382q0 -233 -157 -383q-158 -150 -385 -150q-230 0 -389 150q-158 149 -158 383t158 382t389 148zM621 160q135 0 235 97t100 251t-100 251t-235 97q-141 0 -239 -97q-99 -97 -99 -251t99 -251q98 -97 239 -97z" />
    <glyph glyph-name="p" unicode="p" horiz-adv-x="1320" 
d="M743 1044q205 0 355 -151q149 -150 149 -385q0 -237 -148 -386q-149 -151 -356 -151q-228 0 -368 146v-465h-213v1364h213v-117q139 145 368 145zM709 160q142 0 237 95q94 94 94 253t-94 253q-95 95 -237 95q-134 0 -234 -97t-100 -251t100 -251t234 -97z" />
    <glyph glyph-name="q" unicode="q" horiz-adv-x="1320" 
d="M1161 1016v-1364h-215v463q-144 -144 -368 -144q-205 0 -355 152q-149 150 -149 385t149 385q150 151 355 151q227 0 368 -145v117h215zM612 160q134 0 234 96t100 252q0 154 -100 251t-234 97q-140 0 -235 -96q-94 -95 -94 -252q0 -159 94 -253q95 -95 235 -95z" />
    <glyph glyph-name="r" unicode="r" horiz-adv-x="860" 
d="M762 1028q43 0 72 -8l-15 -205q-22 2 -59 2q-188 0 -287 -122q-98 -120 -98 -337v-358h-213v1016h213v-217q139 229 387 229z" />
    <glyph glyph-name="s" unicode="s" horiz-adv-x="1032" 
d="M76 272l213 45q11 -86 79 -129t175 -43q93 0 146 37q54 38 54 99q0 90 -137 120l-221 45q-276 62 -276 277q0 144 109 232q110 89 292 89q173 0 286 -80t142 -212l-203 -43q-12 75 -73 120t-158 45q-88 0 -134 -37t-46 -96q0 -86 122 -114l242 -54q127 -28 195 -97
q69 -70 69 -177q0 -157 -116 -242q-118 -86 -312 -86q-180 0 -305 77t-143 224z" />
    <glyph glyph-name="t" unicode="t" horiz-adv-x="847" 
d="M772 227l66 -178q-130 -78 -252 -78q-168 0 -269 96q-98 94 -98 279v494h-219v176h219v315h213v-315h348v-176h-348v-480q0 -92 45 -140t123 -48q89 0 172 55z" />
    <glyph glyph-name="u" unicode="u" horiz-adv-x="1269" 
d="M1108 1016v-1016h-213v125q-130 -154 -350 -154q-185 0 -296 120q-112 121 -112 312v613h213v-570q0 -123 67 -201q66 -77 177 -77q142 0 221 96q80 97 80 283v469h213z" />
    <glyph glyph-name="v" unicode="v" horiz-adv-x="1157" 
d="M1130 1018l-438 -1018h-227l-436 1018h231l320 -764l319 764h231z" />
    <glyph glyph-name="w" unicode="w" horiz-adv-x="1593" 
d="M1565 1016l-340 -1020h-195l-233 684l-234 -684h-194l-340 1020h213l231 -707l240 707h168l239 -707l232 707h213z" />
    <glyph glyph-name="x" unicode="x" horiz-adv-x="1196" 
d="M756 498l364 -498h-256l-266 367l-266 -367h-254l364 498l-364 520h254l266 -385l266 385h256z" />
    <glyph glyph-name="y" unicode="y" horiz-adv-x="1173" 
d="M1147 1018l-608 -1366h-238l166 373l-438 993h237l318 -733l325 733h238z" />
    <glyph glyph-name="z" unicode="z" horiz-adv-x="1054" 
d="M973 176v-176h-891v141l604 699h-588v176h850v-144l-604 -696h629z" />
    <glyph glyph-name="braceleft" unicode="{" horiz-adv-x="874" 
d="M487 1235v-338q0 -163 -137 -223q137 -57 137 -223v-338q0 -46 27 -73q28 -28 70 -28h192v-180h-217q-126 0 -203 71q-75 69 -75 189v334q0 122 -160 152l-53 16v160l53 16q160 35 160 152v333q0 119 76 191q77 72 202 72h217v-181h-192q-43 0 -70 -28q-27 -29 -27 -74z
" />
    <glyph glyph-name="bar" unicode="|" horiz-adv-x="528" 
d="M369 -147h-207v1665h207v-1665z" />
    <glyph glyph-name="braceright" unicode="}" horiz-adv-x="874" 
d="M807 754v-160l-53 -16q-160 -30 -160 -152v-334q0 -119 -76 -189q-77 -71 -203 -71h-217v180h193q41 0 69 28q27 27 27 73v338q0 166 137 223q-137 60 -137 223v338q0 45 -27 74q-27 28 -69 28h-193v181h217q125 0 202 -72t77 -191v-333q0 -117 160 -152z" />
    <glyph glyph-name="asciitilde" unicode="~" horiz-adv-x="999" 
d="M264 479h-168q0 149 74 217t170 68q83 0 169 -53q88 -54 128 -54q44 0 68 30q24 31 20 79h180q0 -154 -78 -223q-79 -70 -176 -70q-86 0 -169 53q-85 54 -122 54q-45 0 -73 -28t-23 -73z" />
    <glyph glyph-name="exclamdown" unicode="&#xa1;" horiz-adv-x="571" 
d="M285 780q-59 0 -96 39q-37 38 -37 92q0 56 37 93q36 36 96 36q59 0 96 -36q39 -38 39 -93q0 -53 -39 -92t-96 -39zM170 -276l8 882h217l8 -882v-64h-233v64z" />
    <glyph glyph-name="cent" unicode="&#xa2;" horiz-adv-x="1181" 
d="M680 842v-668q169 33 229 207l197 -51q-37 -144 -151 -238q-113 -94 -267 -115v-243h-180v246q-188 34 -311 178t-123 350t124 349q125 144 310 177v256h180v-252q150 -21 263 -113q115 -94 155 -237l-205 -59q-46 178 -221 213zM283 508q0 -125 63 -211q64 -87 168 -117
v656q-104 -28 -168 -118q-63 -88 -63 -210z" />
    <glyph glyph-name="sterling" unicode="&#xa3;" horiz-adv-x="1310" 
d="M1225 199v-199h-1127v135l174 43v344h-174v199h174v209q0 211 130 341t346 130q210 0 336 -128q127 -129 139 -341l-207 -41q-10 145 -81 222t-187 77t-186 -72q-70 -71 -70 -188v-209h413v-199h-413v-323h733z" />
    <glyph glyph-name="yen" unicode="&#xa5;" horiz-adv-x="1388" 
d="M889 668h293v-164h-381v-129h381v-164h-381v-211h-219v211h-373v164h373v129h-373v164h285l-443 704h244l395 -647l395 647h252z" />
    <glyph glyph-name="section" unicode="&#xa7;" horiz-adv-x="1095" 
d="M1024 492q0 -191 -170 -275q64 -79 64 -186q0 -151 -109 -237q-107 -85 -281 -85q-198 0 -311 101q-112 100 -111 266l185 35q12 -236 227 -236q84 0 137 44q54 45 54 116q0 94 -123 151l-283 123q-129 52 -189 126q-59 73 -59 183q0 185 172 273q-65 77 -65 186
q0 154 107 239t280 85q189 0 298 -99t114 -260l-191 -34q-1 110 -59 168q-57 57 -152 57q-84 0 -137 -44t-53 -116q0 -96 125 -149l282 -123q130 -52 190 -126q58 -71 58 -183zM678 338l31 -14q118 60 118 155q0 49 -30 87q-29 37 -109 75l-289 131l-34 16
q-115 -53 -115 -157q0 -49 31 -88q29 -36 110 -76z" />
    <glyph glyph-name="dieresis" unicode="&#xa8;" horiz-adv-x="1228" 
d="M403 1432q58 0 97 -40t39 -94q0 -56 -38 -94q-37 -37 -98 -37q-60 0 -97 37q-38 38 -38 94q0 54 39 94t96 40zM827 1432q58 0 97 -40t39 -94q0 -56 -38 -94q-37 -37 -98 -37q-60 0 -97 37q-38 38 -38 94q0 54 39 94t96 40z" />
    <glyph glyph-name="copyright" unicode="&#xa9;" horiz-adv-x="1568" 
d="M780 1401q297 0 505 -205t208 -514q0 -306 -208 -508q-209 -203 -505 -203q-299 0 -508 203t-209 508q0 308 209 514q208 205 508 205zM780 1305q-252 0 -432 -178q-178 -177 -178 -443q0 -264 178 -439t432 -175q253 0 429 175q177 175 177 439q0 266 -177 443
q-178 178 -429 178zM791 1069q149 0 249 -79q101 -80 119 -197l-143 -31q-21 78 -82 123t-143 45q-105 0 -171 -69q-67 -70 -67 -177q0 -106 68 -176t170 -70q82 0 146 47q62 46 77 131l143 -24q-16 -128 -117 -211q-100 -82 -249 -82q-163 0 -277 108q-115 109 -115 277
q0 169 115 278q113 107 277 107z" />
    <glyph glyph-name="ordfeminine" unicode="&#xaa;" horiz-adv-x="794" 
d="M414 1378q134 0 217 -66q82 -66 82 -196v-418h-158v60q-79 -76 -215 -76q-111 0 -177 57q-67 58 -67 154q0 91 77 148q76 57 206 57h176v26q0 57 -35 94q-34 35 -96 35q-116 0 -145 -114l-144 30q23 104 97 156q76 53 182 53zM373 799q81 0 131 43q51 43 51 110v39h-162
q-64 0 -101 -25q-38 -26 -38 -71t33 -71q32 -25 86 -25z" />
    <glyph glyph-name="guillemotleft" unicode="&#xab;" horiz-adv-x="907" 
d="M51 537l240 364h213l-240 -364l240 -365h-213zM406 537l239 364h211l-240 -364l240 -365h-211z" />
    <glyph glyph-name="registered" unicode="&#xae;" horiz-adv-x="1024" 
d="M512 1401q172 0 291 -117t119 -295q0 -176 -119 -293q-117 -116 -291 -116t-291 116q-119 117 -119 293q0 178 119 295t291 117zM512 647q143 0 241 98q99 99 99 244q0 147 -99 246q-98 98 -241 98q-141 0 -239 -98q-99 -99 -99 -246q0 -145 99 -244q98 -98 239 -98z
M690 1067q0 -99 -104 -123l125 -135h-86l-119 129h-72v-129h-69v383h172q70 0 111 -34q42 -34 42 -91zM434 999h103q35 0 59 19q22 18 22 47q0 28 -22 46q-21 17 -59 17h-103v-129z" />
    <glyph glyph-name="macron" unicode="&#xaf;" horiz-adv-x="1228" 
d="M924 1184h-617v174h617v-174z" />
    <glyph glyph-name="degree" unicode="&#xb0;" horiz-adv-x="843" 
d="M424 1401q122 0 208 -80q85 -79 85 -207q0 -127 -86 -207t-207 -80q-122 0 -210 80q-87 79 -87 207t87 207q88 80 210 80zM424 965q58 0 102 41q43 40 43 108t-44 110t-101 42q-60 0 -105 -42t-45 -110t45 -108q46 -41 105 -41z" />
    <glyph glyph-name="plusminus" unicode="&#xb1;" horiz-adv-x="1187" 
d="M1055 860v-186h-367v-322h-188v322h-367v186h367v352h188v-352h367zM133 186h922v-186h-922v186z" />
    <glyph glyph-name="acute" unicode="&#xb4;" horiz-adv-x="1228" 
d="M666 1161h-183l150 291h250z" />
    <glyph glyph-name="paragraph" unicode="&#xb6;" horiz-adv-x="1183" 
d="M737 0h-166v612h-102q-184 0 -307 106q-121 105 -121 281q0 182 107 277q108 96 292 96h297v-1372zM1024 0h-166v1372h166v-1372z" />
    <glyph glyph-name="periodcentered" unicode="&#xb7;" horiz-adv-x="452" 
d="M227 664q58 0 96 -38q37 -37 37 -91q0 -56 -37 -93q-36 -36 -96 -36q-59 0 -96 36q-39 38 -39 93q0 53 39 91q40 38 96 38z" />
    <glyph glyph-name="cedilla" unicode="&#xb8;" horiz-adv-x="1228" 
d="M602 0h160l-133 -338h-228z" />
    <glyph glyph-name="ordmasculine" unicode="&#xba;" horiz-adv-x="884" 
d="M440 1378q152 0 256 -97q105 -97 105 -251t-105 -251q-104 -97 -256 -97q-148 0 -252 97t-104 251t104 251t252 97zM440 825q83 0 144 59q59 58 59 146q0 89 -59 147t-144 58q-80 0 -138 -58t-58 -147q0 -88 58 -146q59 -59 138 -59z" />
    <glyph glyph-name="guillemotright" unicode="&#xbb;" horiz-adv-x="907" 
d="M51 172l240 365l-240 364h213l240 -364l-240 -365h-213zM406 172l239 365l-239 364h210l240 -364l-240 -365h-210z" />
    <glyph glyph-name="onequarter" unicode="&#xbc;" horiz-adv-x="1474" 
d="M205 1163l-160 -100v168l215 141h102v-768h-157v559zM1309 1372l-1016 -1372h-146l1016 1372h146zM1421 156h-110v-158h-148v158h-405v143l370 467h183v-481h110v-129zM1163 285v317l-254 -317h254z" />
    <glyph glyph-name="onehalf" unicode="&#xbd;" horiz-adv-x="1656" 
d="M205 1163l-160 -100v168l215 141h102v-768h-157v559zM1292 1372l-1016 -1372h-145l1016 1372h145zM1262 137h321v-137h-571v104l291 246q72 62 99 99q28 39 28 86q0 53 -36 85q-35 31 -94 31q-65 0 -102 -43q-36 -42 -41 -116l-135 30q0 118 76 190t202 72q127 0 205 -66
t78 -181q0 -80 -45 -143q-42 -59 -137 -140z" />
    <glyph glyph-name="threequarters" unicode="&#xbe;" horiz-adv-x="1652" 
d="M639 840q0 -104 -81 -173t-208 -69q-126 0 -208 69q-83 69 -87 185l133 33q5 -74 49 -115t115 -41q64 0 102 32t38 83q0 50 -38 77q-37 27 -100 27h-78v113h68q60 0 98 26q39 27 39 72q0 47 -37 77t-96 30q-66 0 -106 -38q-39 -38 -41 -108l-138 33q7 110 85 175
q77 65 198 65q123 0 201 -66t78 -164q0 -107 -105 -153q119 -53 119 -170zM1477 1372l-1016 -1372h-146l1016 1372h146zM1597 156h-110v-158h-148v158h-405v143l371 467h182v-481h110v-129zM1339 285v317l-254 -317h254z" />
    <glyph glyph-name="questiondown" unicode="&#xbf;" horiz-adv-x="1081" 
d="M555 780q-57 0 -95 39q-38 40 -38 92q0 55 38 93q36 36 95 36t96 -36q39 -38 39 -93q0 -53 -39 -92t-96 -39zM811 102l205 -41q-10 -179 -148 -304q-136 -124 -344 -124q-210 0 -337 121q-128 122 -128 316q0 159 109 265q108 105 287 126v135h196v-301h-121
q-114 0 -189 -63t-75 -162q0 -111 72 -180q71 -68 186 -68q121 0 197 76q75 75 90 204z" />
    <glyph glyph-name="Agrave" unicode="&#xc0;" horiz-adv-x="1433" 
d="M625 1518l-217 290h249l150 -290h-182zM1423 0h-237l-135 319h-668l-135 -319h-238l604 1372h205zM965 520l-248 584l-248 -584h496z" />
    <glyph glyph-name="Aacute" unicode="&#xc1;" horiz-adv-x="1433" 
d="M817 1518h-182l149 290h250zM1423 0h-237l-135 319h-668l-135 -319h-238l604 1372h205zM965 520l-248 584l-248 -584h496z" />
    <glyph glyph-name="Acircumflex" unicode="&#xc2;" horiz-adv-x="1433" 
d="M594 1501h-213l235 297h203l238 -297h-215l-123 158zM1423 0h-237l-135 319h-668l-135 -319h-238l604 1372h205zM965 520l-248 584l-248 -584h496z" />
    <glyph glyph-name="Atilde" unicode="&#xc3;" horiz-adv-x="1433" 
d="M610 1645q-31 0 -49 -23q-18 -22 -18 -59h-146q0 124 60 181q59 56 139 56q69 0 140 -44t112 -44q29 0 48 25q17 23 17 63h144q0 -127 -58 -185q-56 -56 -139 -56q-73 0 -141 43t-109 43zM1423 0h-237l-135 319h-668l-135 -319h-238l604 1372h205zM965 520l-248 584
l-248 -584h496z" />
    <glyph glyph-name="Adieresis" unicode="&#xc4;" horiz-adv-x="1433" 
d="M506 1524q-60 0 -97 37q-38 38 -38 94q0 53 39 93t96 40t96 -40t39 -93q0 -56 -38 -94q-37 -37 -97 -37zM930 1524q-60 0 -97 37q-38 38 -38 94q0 53 39 93t96 40t96 -40t39 -93q0 -56 -38 -94q-37 -37 -97 -37zM1423 0h-237l-135 319h-668l-135 -319h-238l604 1372h205z
M965 520l-248 584l-248 -584h496z" />
    <glyph glyph-name="Aring" unicode="&#xc5;" horiz-adv-x="1433" 
d="M717 1479q-96 0 -161 64q-67 65 -67 155q0 91 67 156t161 65q95 0 162 -65q65 -64 65 -156q0 -94 -65 -156q-66 -63 -162 -63zM717 1794q-42 0 -72 -28q-29 -27 -29 -68q0 -39 29 -68q28 -28 72 -28q43 0 71 28q29 29 29 68q0 41 -29 68q-30 28 -71 28zM1423 0h-237
l-135 319h-668l-135 -319h-238l604 1372h205zM965 520l-248 584l-248 -584h496z" />
    <glyph glyph-name="AE" unicode="&#xc6;" horiz-adv-x="2131" 
d="M2044 199v-199h-1022v285h-565l-193 -285h-254l953 1372h1079v-198h-801v-388h739v-196h-739v-391h803zM1022 483v641l-432 -641h432z" />
    <glyph glyph-name="Ccedilla" unicode="&#xc7;" horiz-adv-x="1576" 
d="M813 178q166 0 287 88t166 258l213 -45q-54 -223 -217 -356t-392 -150l-122 -311h-228l189 318q-264 38 -437 235q-174 198 -174 471q0 299 208 507t507 208q244 0 426 -133q183 -133 240 -359l-213 -61q-45 170 -166 258t-287 88q-209 0 -351 -146q-143 -148 -143 -362
q0 -213 143 -361q142 -147 351 -147z" />
    <glyph glyph-name="Egrave" unicode="&#xc8;" horiz-adv-x="1302" 
d="M602 1518l-217 290h250l149 -290h-182zM1184 199v-199h-1022v1372h1020v-198h-801v-388h739v-196h-739v-391h803z" />
    <glyph glyph-name="Eacute" unicode="&#xc9;" horiz-adv-x="1302" 
d="M797 1518h-183l150 290h250zM1184 199v-199h-1022v1372h1020v-198h-801v-388h739v-196h-739v-391h803z" />
    <glyph glyph-name="Ecircumflex" unicode="&#xca;" horiz-adv-x="1302" 
d="M573 1501h-213l236 297h203l237 -297h-215l-123 158zM1184 199v-199h-1022v1372h1020v-198h-801v-388h739v-196h-739v-391h803z" />
    <glyph glyph-name="Edieresis" unicode="&#xcb;" horiz-adv-x="1302" 
d="M485 1524q-60 0 -97 37q-38 38 -38 94q0 53 39 93t96 40q58 0 97 -40t39 -93q0 -56 -38 -94q-37 -37 -98 -37zM909 1524q-60 0 -97 37q-38 38 -38 94q0 53 39 93t96 40q58 0 97 -40q38 -39 38 -93q0 -57 -37 -94t-98 -37zM1184 199v-199h-1022v1372h1020v-198h-801v-388
h739v-196h-739v-391h803z" />
    <glyph glyph-name="Igrave" unicode="&#xcc;" horiz-adv-x="542" 
d="M211 1808l149 -290h-182l-217 290h250zM381 0h-219v1372h219v-1372z" />
    <glyph glyph-name="Iacute" unicode="&#xcd;" horiz-adv-x="542" 
d="M371 1518h-183l150 290h250zM381 0h-219v1372h219v-1372z" />
    <glyph glyph-name="Icircumflex" unicode="&#xce;" horiz-adv-x="542" 
d="M610 1501h-215l-123 158l-125 -158h-213l236 297h203zM162 1372h219v-1372h-219v1372z" />
    <glyph glyph-name="Idieresis" unicode="&#xcf;" horiz-adv-x="542" 
d="M59 1788q58 0 97 -40t39 -93q0 -56 -38 -94q-37 -37 -98 -37q-60 0 -97 37q-38 38 -38 94q0 53 39 93t96 40zM483 1788q58 0 97 -40q38 -39 38 -93q0 -57 -37 -94t-98 -37q-60 0 -97 37q-38 38 -38 94q0 53 39 93t96 40zM381 0h-219v1372h219v-1372z" />
    <glyph glyph-name="Eth" unicode="&#xd0;" horiz-adv-x="1513" 
d="M201 1372h479q348 0 552 -191q206 -192 206 -495t-206 -495q-204 -191 -552 -191h-479v590h-140v201h140v581zM420 199h260q246 0 390 135t144 352t-144 352q-145 136 -390 136h-260v-383h303v-201h-303v-391z" />
    <glyph glyph-name="Ntilde" unicode="&#xd1;" horiz-adv-x="1558" 
d="M684 1645q-31 0 -49 -23q-19 -24 -19 -59h-145q0 125 59 181t140 56q69 0 140 -44t112 -44q29 0 48 25q17 23 17 63h143q0 -128 -57 -185q-56 -56 -139 -56q-73 0 -141 43t-109 43zM1397 1372v-1372h-187l-829 985v-985h-219v1372h186l828 -1001v1001h221z" />
    <glyph glyph-name="Ograve" unicode="&#xd2;" horiz-adv-x="1626" 
d="M721 1518l-217 290h250l149 -290h-182zM813 1401q300 0 509 -209q208 -208 208 -508q0 -299 -208 -506t-509 -207t-508 207t-207 506q0 301 207 509t508 208zM813 178q208 0 352 146t144 360q0 217 -144 364q-143 146 -352 146t-351 -146q-143 -148 -143 -364
q0 -214 143 -360t351 -146z" />
    <glyph glyph-name="Oacute" unicode="&#xd3;" horiz-adv-x="1626" 
d="M913 1518h-182l150 290h249zM813 1401q300 0 509 -209q208 -208 208 -508q0 -299 -208 -506t-509 -207t-508 207t-207 506q0 301 207 509t508 208zM813 178q208 0 352 146t144 360q0 217 -144 364q-143 146 -352 146t-351 -146q-143 -148 -143 -364q0 -214 143 -360
t351 -146z" />
    <glyph glyph-name="Ocircumflex" unicode="&#xd4;" horiz-adv-x="1626" 
d="M690 1501h-213l236 297h202l238 -297h-215l-123 158zM813 1401q300 0 509 -209q208 -208 208 -508q0 -299 -208 -506t-509 -207t-508 207t-207 506q0 301 207 509t508 208zM813 178q208 0 352 146t144 360q0 217 -144 364q-143 146 -352 146t-351 -146
q-143 -148 -143 -364q0 -214 143 -360t351 -146z" />
    <glyph glyph-name="Otilde" unicode="&#xd5;" horiz-adv-x="1626" 
d="M707 1645q-32 0 -50 -23q-18 -22 -18 -59h-145q0 125 59 181t139 56q70 0 141 -44t111 -44q29 0 48 25q18 24 18 63h143q0 -128 -57 -185q-56 -56 -140 -56q-73 0 -141 43t-108 43zM813 1401q300 0 509 -209q208 -208 208 -508q0 -299 -208 -506t-509 -207t-508 207
t-207 506q0 301 207 509t508 208zM813 178q208 0 352 146t144 360q0 217 -144 364q-143 146 -352 146t-351 -146q-143 -148 -143 -364q0 -214 143 -360t351 -146z" />
    <glyph glyph-name="Odieresis" unicode="&#xd6;" horiz-adv-x="1626" 
d="M602 1524q-60 0 -97 37q-38 38 -38 94q0 53 39 93t96 40t96 -40t39 -93q0 -56 -38 -94q-37 -37 -97 -37zM1026 1524q-60 0 -97 37q-38 38 -38 94q0 53 39 93t96 40t96 -40t39 -93q0 -56 -38 -94q-37 -37 -97 -37zM813 1401q300 0 509 -209q208 -208 208 -508
q0 -299 -208 -506t-509 -207t-508 207t-207 506q0 301 207 509t508 208zM813 178q208 0 352 146t144 360q0 217 -144 364q-143 146 -352 146t-351 -146q-143 -148 -143 -364q0 -214 143 -360t351 -146z" />
    <glyph glyph-name="multiply" unicode="&#xd7;" horiz-adv-x="1060" 
d="M666 625l282 -281l-135 -137l-283 282l-282 -282l-135 137l282 281l-282 282l135 135l282 -282l283 282l135 -135z" />
    <glyph glyph-name="Oslash" unicode="&#xd8;" horiz-adv-x="1626" 
d="M1507 1239l-121 -121q144 -192 144 -434q0 -299 -208 -506t-509 -207q-243 0 -430 142l-137 -138l-127 129l133 134q-154 198 -154 446q0 301 207 509t508 208q251 0 449 -154l118 119zM319 684q0 -157 87 -293l704 705q-129 98 -297 98q-209 0 -351 -146
q-143 -148 -143 -364zM813 178q208 0 352 146t144 360q0 156 -78 279l-699 -699q125 -86 281 -86z" />
    <glyph glyph-name="Ugrave" unicode="&#xd9;" horiz-adv-x="1466" 
d="M639 1518l-217 290h250l149 -290h-182zM1319 1372v-766q0 -283 -160 -460q-159 -175 -420 -175q-266 0 -429 175t-163 460v766h220v-766q0 -192 102 -308t270 -116q162 0 261 117q100 118 100 307v766h219z" />
    <glyph glyph-name="Uacute" unicode="&#xda;" horiz-adv-x="1466" 
d="M834 1518h-183l150 290h250zM1319 1372v-766q0 -283 -160 -460q-159 -175 -420 -175q-266 0 -429 175t-163 460v766h220v-766q0 -192 102 -308t270 -116q162 0 261 117q100 118 100 307v766h219z" />
    <glyph glyph-name="Ucircumflex" unicode="&#xdb;" horiz-adv-x="1466" 
d="M610 1501h-213l236 297h203l237 -297h-215l-123 158zM1319 1372v-766q0 -283 -160 -460q-159 -175 -420 -175q-266 0 -429 175t-163 460v766h220v-766q0 -192 102 -308t270 -116q162 0 261 117q100 118 100 307v766h219z" />
    <glyph glyph-name="Udieresis" unicode="&#xdc;" horiz-adv-x="1466" 
d="M522 1524q-60 0 -97 37q-38 38 -38 94q0 53 39 93t96 40t96 -40t39 -93q0 -57 -37 -94t-98 -37zM946 1524q-60 0 -97 37q-38 38 -38 94q0 53 39 93t96 40t96 -40t39 -93q0 -56 -38 -94q-37 -37 -97 -37zM1319 1372v-766q0 -283 -160 -460q-159 -175 -420 -175
q-266 0 -429 175t-163 460v766h220v-766q0 -192 102 -308t270 -116q162 0 261 117q100 118 100 307v766h219z" />
    <glyph glyph-name="Yacute" unicode="&#xdd;" horiz-adv-x="1394" 
d="M797 1518h-183l150 290h250zM803 459v-459h-219v455l-555 917h243l422 -688l420 688h252z" />
    <glyph glyph-name="Thorn" unicode="&#xde;" horiz-adv-x="1308" 
d="M381 1137h367q217 0 351 -125t134 -326t-134 -326q-133 -124 -351 -124h-367v-236h-219v1372h219v-235zM381 436h356q123 0 201 70q76 69 76 180q0 113 -76 182q-78 70 -201 70h-356v-502z" />
    <glyph glyph-name="germandbls" unicode="&#xdf;" horiz-adv-x="1345" 
d="M989 788q133 -38 204 -133q73 -97 73 -241q0 -184 -123 -306q-124 -122 -326 -122q-153 0 -305 45l29 176q146 -41 260 -41q126 0 205 73q77 71 77 175q0 127 -97 197q-98 71 -269 71h-88v176h57q126 0 204 61q77 60 77 158q0 111 -75 178q-76 68 -200 68
q-143 0 -230 -91q-87 -92 -87 -247v-985h-213v971q0 243 146 390q147 148 384 148q214 0 345 -115q132 -116 132 -294q0 -108 -47 -191q-46 -81 -133 -121z" />
    <glyph glyph-name="agrave" unicode="&#xe0;" horiz-adv-x="1316" 
d="M543 1161l-217 291h249l150 -291h-182zM1155 1016v-1016h-213v117q-140 -146 -369 -146q-206 0 -355 151q-148 149 -148 386q0 235 149 385q150 151 354 151q230 0 369 -145v117h213zM608 160q134 0 234 97t100 251t-100 251t-234 97q-142 0 -237 -95t-95 -253t95 -253
t237 -95z" />
    <glyph glyph-name="aacute" unicode="&#xe1;" horiz-adv-x="1316" 
d="M735 1161h-182l149 291h250zM1155 1016v-1016h-213v117q-140 -146 -369 -146q-206 0 -355 151q-148 149 -148 386q0 235 149 385q150 151 354 151q230 0 369 -145v117h213zM608 160q134 0 234 97t100 251t-100 251t-234 97q-142 0 -237 -95t-95 -253t95 -253t237 -95z
" />
    <glyph glyph-name="acircumflex" unicode="&#xe2;" horiz-adv-x="1316" 
d="M512 1145h-213l236 297h202l238 -297h-215l-123 158zM1155 1016v-1016h-213v117q-140 -146 -369 -146q-206 0 -355 151q-148 149 -148 386q0 235 149 385q150 151 354 151q230 0 369 -145v117h213zM608 160q134 0 234 97t100 251t-100 251t-234 97q-142 0 -237 -95
t-95 -253t95 -253t237 -95z" />
    <glyph glyph-name="atilde" unicode="&#xe3;" horiz-adv-x="1316" 
d="M528 1288q-31 0 -49 -22t-18 -60h-146q0 125 60 182q59 56 139 56q69 0 140 -44t112 -44q30 0 48 24q17 23 17 64h144q0 -129 -57 -186q-56 -56 -140 -56q-73 0 -141 43t-109 43zM1155 1016v-1016h-213v117q-140 -146 -369 -146q-206 0 -355 151q-148 149 -148 386
q0 235 149 385q150 151 354 151q230 0 369 -145v117h213zM608 160q134 0 234 97t100 251t-100 251t-234 97q-142 0 -237 -95t-95 -253t95 -253t237 -95z" />
    <glyph glyph-name="adieresis" unicode="&#xe4;" horiz-adv-x="1316" 
d="M424 1167q-60 0 -97 37q-38 38 -38 94q0 54 39 94t96 40t96 -40t39 -94q0 -56 -38 -94q-37 -37 -97 -37zM848 1167q-60 0 -97 37q-38 38 -38 94q0 54 39 94t96 40t96 -40t39 -94q0 -56 -38 -94q-37 -37 -97 -37zM1155 1016v-1016h-213v117q-140 -146 -369 -146
q-206 0 -355 151q-148 149 -148 386q0 235 149 385q150 151 354 151q230 0 369 -145v117h213zM608 160q134 0 234 97t100 251t-100 251t-234 97q-142 0 -237 -95t-95 -253t95 -253t237 -95z" />
    <glyph glyph-name="aring" unicode="&#xe5;" horiz-adv-x="1316" 
d="M635 1120q-94 0 -161 65q-66 65 -66 154q0 93 66 157q67 65 161 65q95 0 162 -65q65 -64 65 -157t-65 -155q-67 -64 -162 -64zM635 1436q-42 0 -72 -28q-28 -27 -28 -69q0 -39 28 -67q29 -29 72 -29t72 29q28 28 28 67q0 42 -28 69q-30 28 -72 28zM1155 1016v-1016h-213
v117q-140 -146 -369 -146q-206 0 -355 151q-148 149 -148 386q0 235 149 385q150 151 354 151q230 0 369 -145v117h213zM608 160q134 0 234 97t100 251t-100 251t-234 97q-142 0 -237 -95t-95 -253t95 -253t237 -95z" />
    <glyph glyph-name="ae" unicode="&#xe6;" horiz-adv-x="1871" 
d="M1798 436h-803q22 -133 104 -207q80 -73 206 -73q79 0 157 42q79 42 119 132l191 -41q-39 -141 -173 -230q-133 -88 -299 -88q-267 0 -411 205q-62 -91 -177 -148q-114 -57 -251 -57q-187 0 -287 90t-100 228q0 140 107 220q108 81 296 81h322v61q0 96 -64 155
q-62 58 -168 58q-101 0 -164 -48t-75 -134l-195 43q17 142 135 230q119 89 303 89q241 0 357 -161q143 161 366 161q215 0 358 -149q145 -151 146 -385v-74zM995 590h588q-21 132 -97 202t-183 70q-118 0 -204 -71q-88 -72 -104 -201zM799 436h-322q-93 0 -146 -38
q-52 -37 -52 -103q0 -68 55 -110q56 -42 151 -42q126 0 220 79t94 192v22z" />
    <glyph glyph-name="ccedilla" unicode="&#xe7;" horiz-adv-x="1181" 
d="M610 168q227 0 299 213l197 -51q-38 -144 -152 -239q-115 -95 -268 -116l-123 -313h-227l188 315q-192 30 -322 176q-128 145 -128 355q0 234 156 385q155 151 380 151q176 0 312 -97q138 -99 184 -259l-205 -59q-29 109 -106 164t-185 55q-141 0 -234 -95t-93 -245
q0 -153 92 -247q92 -93 235 -93z" />
    <glyph glyph-name="egrave" unicode="&#xe8;" horiz-adv-x="1181" 
d="M508 1161l-217 291h250l149 -291h-182zM1108 530v-73h-823q15 -138 102 -219q88 -82 205 -82q210 0 299 176l190 -41q-62 -158 -189 -239q-128 -81 -300 -81q-213 0 -366 150q-152 149 -152 385q0 239 152 388q153 150 374 150q206 0 353 -144t155 -370zM600 856
q-108 0 -197 -65q-89 -66 -112 -183h598q-24 121 -103 185q-78 63 -186 63z" />
    <glyph glyph-name="eacute" unicode="&#xe9;" horiz-adv-x="1181" 
d="M702 1161h-182l150 291h250zM1108 530v-73h-823q15 -138 102 -219q88 -82 205 -82q210 0 299 176l190 -41q-62 -158 -189 -239q-128 -81 -300 -81q-213 0 -366 150q-152 149 -152 385q0 239 152 388q153 150 374 150q206 0 353 -144t155 -370zM600 856q-108 0 -197 -65
q-89 -66 -112 -183h598q-24 121 -103 185q-78 63 -186 63z" />
    <glyph glyph-name="ecircumflex" unicode="&#xea;" horiz-adv-x="1181" 
d="M479 1145h-213l236 297h203l237 -297h-215l-123 158zM1108 530v-73h-823q15 -138 102 -219q88 -82 205 -82q210 0 299 176l190 -41q-62 -158 -189 -239q-128 -81 -300 -81q-213 0 -366 150q-152 149 -152 385q0 239 152 388q153 150 374 150q206 0 353 -144t155 -370z
M600 856q-108 0 -197 -65q-89 -66 -112 -183h598q-24 121 -103 185q-78 63 -186 63z" />
    <glyph glyph-name="edieresis" unicode="&#xeb;" horiz-adv-x="1181" 
d="M391 1167q-60 0 -97 37q-38 38 -38 94q0 54 39 94t96 40t96 -40t39 -94q0 -56 -38 -94q-37 -37 -97 -37zM815 1167q-60 0 -97 37q-38 38 -38 94q0 54 39 94t96 40t96 -40t39 -94q0 -56 -38 -94q-37 -37 -97 -37zM1108 530v-73h-823q15 -138 102 -219q88 -82 205 -82
q210 0 299 176l190 -41q-62 -158 -189 -239q-128 -81 -300 -81q-213 0 -366 150q-152 149 -152 385q0 239 152 388q153 150 374 150q206 0 353 -144t155 -370zM600 856q-108 0 -197 -65q-89 -66 -112 -183h598q-24 121 -103 185q-78 63 -186 63z" />
    <glyph glyph-name="igrave" unicode="&#xec;" horiz-adv-x="587" 
d="M233 1452l150 -291h-182l-217 291h249zM401 0h-213v1016h213v-1016z" />
    <glyph glyph-name="iacute" unicode="&#xed;" horiz-adv-x="587" 
d="M395 1161h-182l149 291h250zM401 0h-213v1016h213v-1016z" />
    <glyph glyph-name="icircumflex" unicode="&#xee;" horiz-adv-x="587" 
d="M635 1145h-215l-123 158l-125 -158h-213l236 297h202zM188 1016h213v-1016h-213v1016z" />
    <glyph glyph-name="idieresis" unicode="&#xef;" horiz-adv-x="587" 
d="M84 1432q57 0 96 -40t39 -94q0 -56 -38 -94q-37 -37 -97 -37t-97 37q-38 38 -38 94q0 54 39 94t96 40zM508 1432q57 0 96 -40t39 -94q0 -56 -38 -94q-37 -37 -97 -37t-97 37q-38 38 -38 94q0 54 39 94t96 40zM401 0h-213v1016h213v-1016z" />
    <glyph glyph-name="eth" unicode="&#xf0;" horiz-adv-x="1241" 
d="M944 1325l-143 -59q159 -155 263 -355q101 -195 101 -397q0 -254 -160 -398q-162 -145 -378 -145q-228 0 -391 151q-162 150 -162 386q0 237 146 386q147 150 368 150q104 0 192 -49q-80 113 -172 191l-276 -117l-62 148l187 79q-127 77 -283 136v43h340q83 -46 148 -93
l221 95zM625 160q153 0 241 108q88 107 88 246q0 146 -98 244t-233 98q-146 0 -243 -97t-97 -251q0 -151 100 -250q99 -98 242 -98z" />
    <glyph glyph-name="ntilde" unicode="&#xf1;" horiz-adv-x="1269" 
d="M541 1288q-31 0 -49 -22q-19 -24 -19 -60h-145q0 126 59 182t139 56q70 0 141 -44t111 -44q30 0 48 24t18 64h143q0 -129 -57 -186q-56 -56 -139 -56q-74 0 -142 43t-108 43zM727 1044q183 0 295 -119q113 -121 113 -311v-614h-215v571q0 123 -67 201q-66 76 -175 76
q-141 0 -222 -96t-81 -283v-469h-213v1016h213v-125q129 153 352 153z" />
    <glyph glyph-name="ograve" unicode="&#xf2;" horiz-adv-x="1239" 
d="M526 1167l-217 291h250l150 -291h-183zM621 1038q231 0 386 -148q156 -148 156 -382q0 -233 -157 -383q-158 -150 -385 -150q-230 0 -389 150q-158 149 -158 383t158 382t389 148zM621 160q135 0 235 97t100 251t-100 251t-235 97q-141 0 -239 -97q-99 -97 -99 -251
t99 -251q98 -97 239 -97z" />
    <glyph glyph-name="oacute" unicode="&#xf3;" horiz-adv-x="1239" 
d="M721 1167h-182l149 291h250zM621 1038q231 0 386 -148q156 -148 156 -382q0 -233 -157 -383q-158 -150 -385 -150q-230 0 -389 150q-158 149 -158 383t158 382t389 148zM621 160q135 0 235 97t100 251t-100 251t-235 97q-141 0 -239 -97q-99 -97 -99 -251t99 -251
q98 -97 239 -97z" />
    <glyph glyph-name="ocircumflex" unicode="&#xf4;" horiz-adv-x="1239" 
d="M498 1151h-213l235 297h203l238 -297h-216l-122 158zM621 1038q231 0 386 -148q156 -148 156 -382q0 -233 -157 -383q-158 -150 -385 -150q-230 0 -389 150q-158 149 -158 383t158 382t389 148zM621 160q135 0 235 97t100 251t-100 251t-235 97q-141 0 -239 -97
q-99 -97 -99 -251t99 -251q98 -97 239 -97z" />
    <glyph glyph-name="otilde" unicode="&#xf5;" horiz-adv-x="1239" 
d="M514 1292q-31 0 -49 -22q-19 -24 -19 -60h-145q0 126 59 182t140 56q69 0 140 -44t112 -44q30 0 48 24q17 23 17 64h144q0 -127 -58 -185q-57 -57 -139 -57q-73 0 -141 43t-109 43zM621 1038q231 0 386 -148q156 -148 156 -382q0 -233 -157 -383q-158 -150 -385 -150
q-230 0 -389 150q-158 149 -158 383t158 382t389 148zM621 160q135 0 235 97t100 251t-100 251t-235 97q-141 0 -239 -97q-99 -97 -99 -251t99 -251q98 -97 239 -97z" />
    <glyph glyph-name="odieresis" unicode="&#xf6;" horiz-adv-x="1239" 
d="M410 1174q-62 0 -98 36q-38 38 -38 95q0 53 39 93t97 40q57 0 96 -40t39 -93q0 -57 -38 -95q-36 -36 -97 -36zM834 1174q-62 0 -98 36q-38 38 -38 95q0 53 39 93t97 40q57 0 96 -40t39 -93q0 -57 -38 -95q-36 -36 -97 -36zM621 1038q231 0 386 -148q156 -148 156 -382
q0 -233 -157 -383q-158 -150 -385 -150q-230 0 -389 150q-158 149 -158 383t158 382t389 148zM621 160q135 0 235 97t100 251t-100 251t-235 97q-141 0 -239 -97q-99 -97 -99 -251t99 -251q98 -97 239 -97z" />
    <glyph glyph-name="divide" unicode="&#xf7;" horiz-adv-x="1187" 
d="M586 1118q57 0 96 -39t39 -92t-39 -91q-40 -38 -96 -38q-59 0 -96 37t-37 92q0 54 37 92q38 39 96 39zM1055 530h-922v189h922v-189zM586 393q57 0 96 -39t39 -92q0 -54 -39 -92q-38 -37 -96 -37q-59 0 -96 37t-37 92q0 54 37 92q38 39 96 39z" />
    <glyph glyph-name="oslash" unicode="&#xf8;" horiz-adv-x="1234" 
d="M1157 940l-102 -102q108 -141 108 -330q0 -233 -157 -383q-158 -150 -385 -150q-182 0 -328 101l-107 -107l-106 107l104 104q-110 135 -110 328q0 234 158 382t389 148q185 0 323 -98l107 107zM283 508q0 -103 47 -182l475 475q-88 55 -184 55q-141 0 -239 -97
q-99 -97 -99 -251zM621 160q135 0 235 97t100 251q0 99 -49 184l-475 -477q88 -55 189 -55z" />
    <glyph glyph-name="ugrave" unicode="&#xf9;" horiz-adv-x="1269" 
d="M532 1161l-217 291h250l150 -291h-183zM1108 1016v-1016h-213v125q-130 -154 -350 -154q-185 0 -296 120q-112 121 -112 312v613h213v-570q0 -123 67 -201q66 -77 177 -77q142 0 221 96q80 97 80 283v469h213z" />
    <glyph glyph-name="uacute" unicode="&#xfa;" horiz-adv-x="1269" 
d="M727 1161h-182l149 291h250zM1108 1016v-1016h-213v125q-130 -154 -350 -154q-185 0 -296 120q-112 121 -112 312v613h213v-570q0 -123 67 -201q66 -77 177 -77q142 0 221 96q80 97 80 283v469h213z" />
    <glyph glyph-name="ucircumflex" unicode="&#xfb;" horiz-adv-x="1269" 
d="M504 1145h-213l235 297h203l238 -297h-215l-123 158zM1108 1016v-1016h-213v125q-130 -154 -350 -154q-185 0 -296 120q-112 121 -112 312v613h213v-570q0 -123 67 -201q66 -77 177 -77q142 0 221 96q80 97 80 283v469h213z" />
    <glyph glyph-name="udieresis" unicode="&#xfc;" horiz-adv-x="1269" 
d="M416 1167q-61 0 -98 37t-37 94q0 55 38 94q39 40 97 40q57 0 96 -40t39 -94q0 -56 -38 -94q-37 -37 -97 -37zM840 1167q-61 0 -98 37t-37 94q0 55 38 94q39 40 97 40q57 0 96 -40t39 -94q0 -56 -38 -94q-37 -37 -97 -37zM1108 1016v-1016h-213v125q-130 -154 -350 -154
q-185 0 -296 120q-112 121 -112 312v613h213v-570q0 -123 67 -201q66 -77 177 -77q142 0 221 96q80 97 80 283v469h213z" />
    <glyph glyph-name="yacute" unicode="&#xfd;" horiz-adv-x="1173" 
d="M676 1165h-182l149 291h250zM1147 1018l-608 -1366h-238l166 373l-438 993h237l318 -733l325 733h238z" />
    <glyph glyph-name="thorn" unicode="&#xfe;" horiz-adv-x="1320" 
d="M743 1044q205 0 355 -151q149 -150 149 -385q0 -237 -148 -386q-149 -151 -356 -151q-228 0 -368 146v-465h-213v1823h213v-576q139 145 368 145zM709 160q142 0 237 95q94 94 94 253t-94 253q-95 95 -237 95q-134 0 -234 -97t-100 -251t100 -251t234 -97z" />
    <glyph glyph-name="ydieresis" unicode="&#xff;" horiz-adv-x="1173" 
d="M365 1171q-61 0 -98 37q-38 38 -38 95q0 53 39 93t97 40q57 0 96 -40t39 -93q0 -57 -38 -95q-37 -37 -97 -37zM788 1171q-60 0 -97 37q-38 38 -38 95q0 53 39 93t96 40q58 0 97 -40t39 -93q0 -57 -38 -95q-37 -37 -98 -37zM1147 1018l-608 -1366h-238l166 373l-438 993
h237l318 -733l325 733h238z" />
    <glyph glyph-name="Amacron" unicode="&#x100;" horiz-adv-x="1433" 
d="M1026 1540h-616v174h616v-174zM1423 0h-237l-135 319h-668l-135 -319h-238l604 1372h205zM965 520l-248 584l-248 -584h496z" />
    <glyph glyph-name="amacron" unicode="&#x101;" horiz-adv-x="1316" 
d="M944 1184h-616v174h616v-174zM1155 1016v-1016h-213v117q-140 -146 -369 -146q-206 0 -355 151q-148 149 -148 386q0 235 149 385q150 151 354 151q230 0 369 -145v117h213zM608 160q134 0 234 97t100 251t-100 251t-234 97q-142 0 -237 -95t-95 -253t95 -253t237 -95z
" />
    <glyph glyph-name="Abreve" unicode="&#x102;" horiz-adv-x="1433" 
d="M717 1487q-147 0 -233 79q-87 80 -87 212h178q0 -63 41 -104q40 -40 101 -40q62 0 102 40q41 41 41 104h176q0 -132 -87 -212q-86 -79 -232 -79zM1423 0h-237l-135 319h-668l-135 -319h-238l604 1372h205zM965 520l-248 584l-248 -584h496z" />
    <glyph glyph-name="abreve" unicode="&#x103;" horiz-adv-x="1316" 
d="M635 1130q-147 0 -233 79q-87 79 -87 212h179q0 -62 41 -103q40 -40 100 -40q62 0 102 40q41 41 41 103h176q0 -133 -87 -212q-86 -79 -232 -79zM1155 1016v-1016h-213v117q-140 -146 -369 -146q-206 0 -355 151q-148 149 -148 386q0 235 149 385q150 151 354 151
q230 0 369 -145v117h213zM608 160q134 0 234 97t100 251t-100 251t-234 97q-142 0 -237 -95t-95 -253t95 -253t237 -95z" />
    <glyph glyph-name="Aogonek" unicode="&#x104;" horiz-adv-x="1433" 
d="M1456 -250l12 -133q-84 -37 -157 -37q-77 0 -130 44t-53 132q0 64 33 119q33 56 113 125h-88l-135 319h-668l-135 -319h-238l604 1372h205l604 -1372q-65 -72 -82 -91q-14 -17 -35 -53q-18 -31 -18 -61q0 -67 70 -67q28 0 98 22zM965 520l-248 584l-248 -584h496z" />
    <glyph glyph-name="aogonek" unicode="&#x105;" horiz-adv-x="1316" 
d="M1188 -250l12 -133q-84 -37 -158 -37q-77 0 -130 44q-52 43 -52 132q0 64 33 119q33 56 113 125h-64v117q-140 -146 -369 -146q-206 0 -355 151q-148 149 -148 386q0 235 149 385q150 151 354 151q230 0 369 -145v117h213v-1016q-65 -72 -82 -91q-17 -20 -36 -53
q-17 -30 -17 -61q0 -67 70 -67q28 0 98 22zM608 160q134 0 234 97t100 251t-100 251t-234 97q-142 0 -237 -95t-95 -253t95 -253t237 -95z" />
    <glyph glyph-name="Cacute" unicode="&#x106;" horiz-adv-x="1576" 
d="M911 1518h-182l150 290h249zM813 178q166 0 287 88t166 258l213 -45q-56 -239 -238 -373q-183 -135 -428 -135q-299 0 -507 207t-208 508q0 299 208 507t507 208q244 0 426 -133q183 -133 240 -359l-213 -61q-45 170 -166 258t-287 88q-209 0 -351 -146
q-143 -148 -143 -362q0 -213 143 -361q142 -147 351 -147z" />
    <glyph glyph-name="cacute" unicode="&#x107;" horiz-adv-x="1181" 
d="M713 1161h-183l150 291h250zM610 168q227 0 299 213l197 -51q-40 -160 -179 -260q-138 -99 -317 -99q-223 0 -380 151q-156 150 -156 386q0 234 156 385q155 151 380 151q176 0 312 -97q138 -99 184 -259l-205 -59q-29 109 -106 164t-185 55q-141 0 -234 -95t-93 -245
q0 -153 92 -247q92 -93 235 -93z" />
    <glyph glyph-name="Cdotaccent" unicode="&#x10a;" horiz-adv-x="1576" 
d="M809 1540q-57 0 -94 37t-37 92q0 53 38 91t93 38q54 0 94 -38q39 -38 39 -91q0 -54 -38 -92q-37 -37 -95 -37zM813 178q166 0 287 88t166 258l213 -45q-56 -239 -238 -373q-183 -135 -428 -135q-299 0 -507 207t-208 508q0 299 208 507t507 208q244 0 426 -133
q183 -133 240 -359l-213 -61q-45 170 -166 258t-287 88q-209 0 -351 -146q-143 -148 -143 -362q0 -213 143 -361q142 -147 351 -147z" />
    <glyph glyph-name="cdotaccent" unicode="&#x10b;" horiz-adv-x="1181" 
d="M610 1184q-57 0 -94 37t-37 92q0 53 38 91t93 38t95 -38q38 -37 38 -91q0 -55 -37 -92t-96 -37zM610 168q227 0 299 213l197 -51q-40 -160 -179 -260q-138 -99 -317 -99q-223 0 -380 151q-156 150 -156 386q0 234 156 385q155 151 380 151q176 0 312 -97
q138 -99 184 -259l-205 -59q-29 109 -106 164t-185 55q-141 0 -234 -95t-93 -245q0 -153 92 -247q92 -93 235 -93z" />
    <glyph glyph-name="Ccaron" unicode="&#x10c;" horiz-adv-x="1576" 
d="M711 1501l-236 299h213l125 -160l123 160h215l-238 -299h-202zM813 178q166 0 287 88t166 258l213 -45q-56 -239 -238 -373q-183 -135 -428 -135q-299 0 -507 207t-208 508q0 299 208 507t507 208q244 0 426 -133q183 -133 240 -359l-213 -61q-45 170 -166 258t-287 88
q-209 0 -351 -146q-143 -148 -143 -362q0 -213 143 -361q142 -147 351 -147z" />
    <glyph glyph-name="ccaron" unicode="&#x10d;" horiz-adv-x="1181" 
d="M512 1145l-236 299h213l125 -160l123 160h215l-237 -299h-203zM610 168q227 0 299 213l197 -51q-40 -160 -179 -260q-138 -99 -317 -99q-223 0 -380 151q-156 150 -156 386q0 234 156 385q155 151 380 151q176 0 312 -97q138 -99 184 -259l-205 -59q-29 109 -106 164
t-185 55q-141 0 -234 -95t-93 -245q0 -153 92 -247q92 -93 235 -93z" />
    <glyph glyph-name="Dcaron" unicode="&#x10e;" horiz-adv-x="1495" 
d="M618 1501l-235 299h213l125 -160l123 160h215l-238 -299h-203zM162 1372h479q348 0 552 -191q206 -192 206 -495t-206 -495q-204 -191 -552 -191h-479v1372zM381 199h260q245 0 391 135t146 352t-146 352q-147 136 -391 136h-260v-975z" />
    <glyph glyph-name="dcaron" unicode="&#x10f;" horiz-adv-x="1320" 
d="M946 1475h215v-1475h-215v115q-144 -144 -368 -144q-205 0 -355 152q-149 150 -149 385t149 385q150 151 355 151q227 0 368 -145v576zM1518 1475l-48 -381h-167v381h215zM612 160q134 0 234 96t100 252q0 154 -100 251t-234 97q-140 0 -235 -96q-94 -95 -94 -252
q0 -159 94 -253q95 -95 235 -95z" />
    <glyph glyph-name="Dcroat" unicode="&#x110;" horiz-adv-x="1513" 
d="M201 1372h479q348 0 552 -191q206 -192 206 -495t-206 -495q-204 -191 -552 -191h-479v590h-140v201h140v581zM420 199h260q246 0 390 135t144 352t-144 352q-145 136 -390 136h-260v-383h303v-201h-303v-391z" />
    <glyph glyph-name="dcroat" unicode="&#x111;" horiz-adv-x="1366" 
d="M1298 1153h-137v-1153h-215v115q-144 -144 -368 -144q-205 0 -355 152q-149 150 -149 385t149 385q150 151 355 151q227 0 368 -145v254h-325v172h325v150h215v-150h137v-172zM612 160q134 0 234 96t100 252q0 154 -100 251t-234 97q-140 0 -235 -96q-94 -95 -94 -252
q0 -159 94 -253q95 -95 235 -95z" />
    <glyph glyph-name="Emacron" unicode="&#x112;" horiz-adv-x="1302" 
d="M1006 1540h-617v174h617v-174zM1184 199v-199h-1022v1372h1020v-198h-801v-388h739v-196h-739v-391h803z" />
    <glyph glyph-name="emacron" unicode="&#x113;" horiz-adv-x="1181" 
d="M911 1184h-616v174h616v-174zM1108 530v-73h-823q15 -138 102 -219q88 -82 205 -82q210 0 299 176l190 -41q-62 -158 -189 -239q-128 -81 -300 -81q-213 0 -366 150q-152 149 -152 385q0 239 152 388q153 150 374 150q206 0 353 -144t155 -370zM600 856q-108 0 -197 -65
q-89 -66 -112 -183h598q-24 121 -103 185q-78 63 -186 63z" />
    <glyph glyph-name="Edotaccent" unicode="&#x116;" horiz-adv-x="1302" 
d="M694 1540q-57 0 -94 37t-37 92q0 53 38 91t93 38q54 0 94 -38q39 -38 39 -91q0 -55 -37 -92t-96 -37zM1184 199v-199h-1022v1372h1020v-198h-801v-388h739v-196h-739v-391h803z" />
    <glyph glyph-name="edotaccent" unicode="&#x117;" horiz-adv-x="1181" 
d="M600 1184q-57 0 -94 37t-37 92q0 53 38 91t93 38q54 0 94 -38q39 -38 39 -91q0 -54 -38 -92q-37 -37 -95 -37zM1108 530v-73h-823q15 -138 102 -219q88 -82 205 -82q210 0 299 176l190 -41q-62 -158 -189 -239q-128 -81 -300 -81q-213 0 -366 150q-152 149 -152 385
q0 239 152 388q153 150 374 150q206 0 353 -144t155 -370zM600 856q-108 0 -197 -65q-89 -66 -112 -183h598q-24 121 -103 185q-78 63 -186 63z" />
    <glyph glyph-name="Eogonek" unicode="&#x118;" horiz-adv-x="1302" 
d="M1184 0h-54q-49 -54 -81 -91q-17 -20 -36 -53q-18 -31 -18 -61q0 -67 70 -67q28 0 98 22l13 -133q-84 -37 -158 -37q-77 0 -130 44q-52 43 -52 132q0 65 32 119q33 56 113 125h-819v1372h1020v-198h-801v-388h739v-196h-739v-391h803v-199z" />
    <glyph glyph-name="eogonek" unicode="&#x119;" horiz-adv-x="1181" 
d="M1108 457h-823q15 -138 101 -219q86 -82 204 -82q219 0 303 178l188 -41q-34 -70 -131 -172q-102 -111 -148 -182q-44 -68 -44 -132q0 -35 23 -55t63 -20q30 0 96 22l12 -119q-79 -55 -161 -55q-90 0 -145 47q-54 47 -54 127q0 110 80 223q-38 -6 -80 -6q-214 0 -367 151
q-151 150 -151 386q0 237 152 386q153 150 370 150q215 0 362 -148q149 -150 150 -380v-59zM289 608h598q-18 124 -98 187q-79 63 -189 63q-109 0 -199 -66q-89 -65 -112 -184z" />
    <glyph glyph-name="Ecaron" unicode="&#x11a;" horiz-adv-x="1302" 
d="M596 1501l-236 299h213l125 -160l123 160h215l-237 -299h-203zM1184 199v-199h-1022v1372h1020v-198h-801v-388h739v-196h-739v-391h803z" />
    <glyph glyph-name="ecaron" unicode="&#x11b;" horiz-adv-x="1181" 
d="M502 1145l-236 299h213l125 -160l123 160h215l-237 -299h-203zM1108 530v-73h-823q15 -138 102 -219q88 -82 205 -82q210 0 299 176l190 -41q-62 -158 -189 -239q-128 -81 -300 -81q-213 0 -366 150q-152 149 -152 385q0 239 152 388q153 150 374 150q206 0 353 -144
t155 -370zM600 856q-108 0 -197 -65q-89 -66 -112 -183h598q-24 121 -103 185q-78 63 -186 63z" />
    <glyph glyph-name="Gbreve" unicode="&#x11e;" horiz-adv-x="1609" 
d="M823 1487q-146 0 -232 79q-87 80 -87 212h178q0 -63 41 -104q40 -40 100 -40q63 0 103 40q41 41 41 104h176q0 -132 -87 -212q-86 -79 -233 -79zM752 778h755q4 -65 4 -94q0 -306 -194 -509q-195 -204 -498 -204t-512 207t-209 508q0 298 207 507q207 208 508 208
q225 0 404 -107q176 -105 249 -299l-198 -69q-130 268 -455 268q-207 0 -349 -146t-142 -362q0 -217 145 -362q146 -146 358 -146q186 0 314 110q127 109 157 290h-544v200z" />
    <glyph glyph-name="gbreve" unicode="&#x11f;" horiz-adv-x="1290" 
d="M623 1130q-147 0 -233 79q-87 79 -87 212h178q0 -62 41 -103q40 -40 101 -40q62 0 102 40q41 41 41 103h176q0 -133 -87 -212q-86 -79 -232 -79zM1128 1016v-926q0 -225 -142 -352t-384 -127q-365 0 -496 244l175 129q60 -94 132 -138q71 -43 189 -43q147 0 233 85
q87 85 87 233v65q-121 -127 -351 -127q-198 0 -348 144q-149 143 -149 350t148 348t349 141q230 0 351 -127v101h206zM606 244q129 0 222 87q94 88 94 222q0 137 -94 223t-222 86q-140 0 -232 -85q-93 -85 -93 -224q0 -137 93 -223q94 -86 232 -86z" />
    <glyph glyph-name="Gdotaccent" unicode="&#x120;" horiz-adv-x="1609" 
d="M823 1540q-57 0 -94 37t-37 92q0 53 38 91t93 38t95 -38q38 -37 38 -91q0 -55 -37 -92t-96 -37zM752 778h755q4 -65 4 -94q0 -306 -194 -509q-195 -204 -498 -204t-512 207t-209 508q0 298 207 507q207 208 508 208q225 0 404 -107q176 -105 249 -299l-198 -69
q-130 268 -455 268q-207 0 -349 -146t-142 -362q0 -217 145 -362q146 -146 358 -146q186 0 314 110q127 109 157 290h-544v200z" />
    <glyph glyph-name="gdotaccent" unicode="&#x121;" horiz-adv-x="1290" 
d="M621 1184q-58 0 -95 37t-37 92q0 53 38 91t94 38q54 0 94 -38q39 -38 39 -91q0 -54 -38 -92q-37 -37 -95 -37zM1128 1016v-926q0 -225 -142 -352t-384 -127q-365 0 -496 244l175 129q60 -94 132 -138q71 -43 189 -43q147 0 233 85q87 85 87 233v65q-121 -127 -351 -127
q-198 0 -348 144q-149 143 -149 350t148 348t349 141q230 0 351 -127v101h206zM606 244q129 0 222 87q94 88 94 222q0 137 -94 223t-222 86q-140 0 -232 -85q-93 -85 -93 -224q0 -137 93 -223q94 -86 232 -86z" />
    <glyph glyph-name="Gcommaaccent" unicode="&#x122;" horiz-adv-x="1609" 
d="M752 778h755q4 -65 4 -94q0 -306 -194 -509q-195 -204 -498 -204t-512 207t-209 508q0 298 207 507q207 208 508 208q225 0 404 -107q176 -105 249 -299l-198 -69q-130 268 -455 268q-207 0 -349 -146t-142 -362q0 -217 145 -362q146 -146 358 -146q186 0 314 110
q127 109 157 290h-544v200zM690 -92h232l-172 -299h-162z" />
    <glyph glyph-name="gcommaaccent" unicode="&#x123;" horiz-adv-x="1300" 
d="M758 1161h-232l172 299h162zM1128 1016v-926q0 -225 -142 -352t-384 -127q-365 0 -496 244l175 129q60 -94 132 -138q71 -43 189 -43q147 0 233 85q87 85 87 233v65q-121 -127 -351 -127q-198 0 -348 144q-149 143 -149 350t148 348t349 141q230 0 351 -127v101h206z
M606 244q129 0 222 87q94 88 94 222q0 137 -94 223t-222 86q-140 0 -232 -85q-93 -85 -93 -224q0 -137 93 -223q94 -86 232 -86z" />
    <glyph glyph-name="Hbar" unicode="&#x126;" horiz-adv-x="1566" 
d="M1499 932h-135v-932h-219v528h-729v-528h-219v932h-136v184h136v256h219v-256h729v256h219v-256h135v-184zM1145 932h-729v-203h729v203z" />
    <glyph glyph-name="hbar" unicode="&#x127;" horiz-adv-x="1294" 
d="M764 1044q186 0 296 -119q111 -120 111 -311v-614h-213v571q0 125 -66 201t-177 76q-141 0 -221 -96q-80 -97 -80 -283v-469h-213v1167h-140v158h140v150h213v-150h325v-158h-325v-276q128 153 350 153z" />
    <glyph glyph-name="Imacron" unicode="&#x12a;" horiz-adv-x="542" 
d="M580 1540h-619v174h619v-174zM381 0h-219v1372h219v-1372z" />
    <glyph glyph-name="imacron" unicode="&#x12b;" horiz-adv-x="587" 
d="M604 1184h-618v174h618v-174zM401 0h-213v1016h213v-1016z" />
    <glyph glyph-name="Iogonek" unicode="&#x12e;" horiz-adv-x="542" 
d="M414 -250l12 -133q-84 -37 -158 -37q-77 0 -130 44q-52 43 -52 132q0 64 33 119q34 57 112 125h-69v1372h219v-1372q-65 -72 -82 -91q-17 -20 -36 -53q-17 -30 -17 -61q0 -67 69 -67q29 0 99 22z" />
    <glyph glyph-name="iogonek" unicode="&#x12f;" horiz-adv-x="587" 
d="M293 1184q-57 0 -94 37t-37 92q0 53 38 91t93 38q54 0 94 -38q39 -38 39 -91q0 -54 -38 -92q-37 -37 -95 -37zM434 -250l12 -133q-84 -37 -157 -37q-77 0 -130 44t-53 132q0 64 33 119q33 56 113 125h-64v1016h213v-1016q-65 -72 -82 -91q-14 -17 -35 -53
q-18 -32 -18 -61q0 -67 70 -67q28 0 98 22z" />
    <glyph glyph-name="Idotaccent" unicode="&#x130;" horiz-adv-x="542" 
d="M270 1798q55 0 95 -38q38 -37 38 -91q0 -55 -37 -92t-96 -37q-57 0 -94 37t-37 92q0 53 38 91t93 38zM381 0h-219v1372h219v-1372z" />
    <glyph glyph-name="dotlessi" unicode="&#x131;" horiz-adv-x="587" 
d="M401 0h-213v1016h213v-1016z" />
    <glyph glyph-name="IJ" unicode="&#x132;" horiz-adv-x="1763" 
d="M162 1372h219v-1372h-219v1372zM1616 1372v-880q0 -228 -145 -375q-144 -146 -375 -146q-210 0 -347 122t-167 325l209 43q18 -132 97 -211q80 -80 208 -80q134 0 216 90q83 91 83 232v880h221z" />
    <glyph glyph-name="ij" unicode="&#x133;" horiz-adv-x="1163" 
d="M285 1454q57 0 96 -39t39 -94q0 -56 -38 -94q-37 -37 -97 -37q-61 0 -99 37q-39 37 -39 94q0 55 39 94t99 39zM879 1454q57 0 97 -39t40 -94q0 -57 -39 -94q-38 -37 -98 -37q-61 0 -98 37q-38 38 -38 94q0 55 39 94t97 39zM391 0h-213v1016h213v-1016zM524 -332l43 187
q52 -23 95 -23q50 0 82 29t32 73v1082h213v-1110q0 -123 -76 -199t-200 -76q-99 0 -189 37z" />
    <glyph glyph-name="Kcommaaccent" unicode="&#x136;" horiz-adv-x="1384" 
d="M1358 0h-297l-604 578h-76v-578h-219v1372h219v-594h59l600 594h273l-686 -688zM567 -92h232l-172 -299h-162z" />
    <glyph glyph-name="kcommaaccent" unicode="&#x137;" horiz-adv-x="1200" 
d="M1194 0h-289l-469 422h-61v-422h-213v1475h213v-842h63l424 383h273l-533 -492zM485 -92h232l-172 -299h-162z" />
    <glyph glyph-name="Lacute" unicode="&#x139;" horiz-adv-x="1206" 
d="M369 1518h-183l150 290h250zM1130 199v-199h-968v1372h219v-1173h749z" />
    <glyph glyph-name="lacute" unicode="&#x13a;" horiz-adv-x="536" 
d="M369 1620h-183l150 291h250zM375 0h-213v1475h213v-1475z" />
    <glyph glyph-name="Lcommaaccent" unicode="&#x13b;" horiz-adv-x="1206" 
d="M1130 199v-199h-968v1372h219v-1173h749zM518 -92h232l-172 -299h-162z" />
    <glyph glyph-name="lcommaaccent" unicode="&#x13c;" horiz-adv-x="536" 
d="M375 0h-213v1475h213v-1475zM51 -391l103 299h231l-172 -299h-162z" />
    <glyph glyph-name="Lcaron" unicode="&#x13d;" horiz-adv-x="1206" 
d="M1130 199v-199h-968v1372h219v-1173h749zM788 991h-167v381h215z" />
    <glyph glyph-name="lcaron" unicode="&#x13e;" horiz-adv-x="536" 
d="M375 0h-213v1475h213v-1475zM678 1094h-168v381h215z" />
    <glyph glyph-name="Ldot" unicode="&#x13f;" horiz-adv-x="1191" 
d="M1130 199v-199h-968v1372h219v-1173h749zM815 584q-57 0 -94 36t-37 93q0 51 38 89t93 38q54 0 94 -38q39 -38 39 -89q0 -57 -38 -93t-95 -36z" />
    <glyph glyph-name="ldot" unicode="&#x140;" horiz-adv-x="751" 
d="M375 0h-213v1475h213v-1475zM606 836q55 0 93 -38t38 -91q0 -56 -37 -93q-36 -36 -94 -36t-94 36q-37 37 -37 93q0 54 37 91q38 38 94 38z" />
    <glyph glyph-name="Lslash" unicode="&#x141;" horiz-adv-x="1226" 
d="M1165 199v-199h-968v473l-136 -63v206l136 64v692h221v-586l289 138v-207l-289 -137v-381h747z" />
    <glyph glyph-name="lslash" unicode="&#x142;" horiz-adv-x="636" 
d="M575 762l-149 -90v-672h-213v545l-152 -90v207l152 90v723h213v-596l149 90v-207z" />
    <glyph glyph-name="Nacute" unicode="&#x143;" horiz-adv-x="1558" 
d="M893 1518h-182l149 290h250zM1397 1372v-1372h-187l-829 985v-985h-219v1372h186l828 -1001v1001h221z" />
    <glyph glyph-name="nacute" unicode="&#x144;" horiz-adv-x="1269" 
d="M750 1161h-183l150 291h250zM727 1044q183 0 295 -119q113 -121 113 -311v-614h-215v571q0 123 -67 201q-66 76 -175 76q-141 0 -222 -96t-81 -283v-469h-213v1016h213v-125q129 153 352 153z" />
    <glyph glyph-name="Ncommaaccent" unicode="&#x145;" horiz-adv-x="1558" 
d="M1397 1372v-1372h-187l-829 985v-985h-219v1372h186l828 -1001v1001h221zM707 -92h231l-172 -299h-162z" />
    <glyph glyph-name="ncommaaccent" unicode="&#x146;" horiz-adv-x="1269" 
d="M727 1044q183 0 295 -119q113 -121 113 -311v-614h-215v571q0 123 -67 201q-66 76 -175 76q-141 0 -222 -96t-81 -283v-469h-213v1016h213v-125q129 153 352 153zM541 -92h231l-172 -299h-162z" />
    <glyph glyph-name="Ncaron" unicode="&#x147;" horiz-adv-x="1558" 
d="M692 1501l-235 299h213l125 -160l123 160h215l-238 -299h-203zM1397 1372v-1372h-187l-829 985v-985h-219v1372h186l828 -1001v1001h221z" />
    <glyph glyph-name="ncaron" unicode="&#x148;" horiz-adv-x="1269" 
d="M549 1145l-236 299h213l125 -160l123 160h215l-237 -299h-203zM727 1044q183 0 295 -119q113 -121 113 -311v-614h-215v571q0 123 -67 201q-66 76 -175 76q-141 0 -222 -96t-81 -283v-469h-213v1016h213v-125q129 153 352 153z" />
    <glyph glyph-name="Eng" unicode="&#x14a;" horiz-adv-x="1527" 
d="M1397 1372v-1452q0 -124 -77 -207q-76 -82 -200 -82q-112 0 -215 47l39 166q65 -26 125 -26q52 0 82 27q31 28 31 75v115l-801 950v-985h-219v1372h186l828 -1001v1001h221z" />
    <glyph glyph-name="eng" unicode="&#x14b;" horiz-adv-x="1271" 
d="M727 1044q183 0 295 -119q113 -121 113 -311v-694q0 -124 -77 -207q-76 -82 -200 -82q-114 0 -217 47l41 164q74 -26 123 -26q52 0 83 28q32 29 32 76v651q0 123 -67 201q-66 76 -175 76q-141 0 -222 -96t-81 -283v-469h-213v1016h213v-125q129 153 352 153z" />
    <glyph glyph-name="Omacron" unicode="&#x14c;" horiz-adv-x="1626" 
d="M1122 1540h-616v174h616v-174zM813 1401q300 0 509 -209q208 -208 208 -508q0 -299 -208 -506t-509 -207t-508 207t-207 506q0 301 207 509t508 208zM813 178q208 0 352 146t144 360q0 217 -144 364q-143 146 -352 146t-351 -146q-143 -148 -143 -364q0 -214 143 -360
t351 -146z" />
    <glyph glyph-name="omacron" unicode="&#x14d;" horiz-adv-x="1239" 
d="M930 1190h-617v174h617v-174zM621 1038q231 0 386 -148q156 -148 156 -382q0 -233 -157 -383q-158 -150 -385 -150q-230 0 -389 150q-158 149 -158 383t158 382t389 148zM621 160q135 0 235 97t100 251t-100 251t-235 97q-141 0 -239 -97q-99 -97 -99 -251t99 -251
q98 -97 239 -97z" />
    <glyph glyph-name="Ohungarumlaut" unicode="&#x150;" horiz-adv-x="1626" 
d="M729 1518h-192l149 290h264zM885 1518l147 290h264l-219 -290h-192zM813 1401q300 0 509 -209q208 -208 208 -508q0 -299 -208 -506t-509 -207t-508 207t-207 506q0 301 207 509t508 208zM813 178q208 0 352 146t144 360q0 217 -144 364q-143 146 -352 146t-351 -146
q-143 -148 -143 -364q0 -214 143 -360t351 -146z" />
    <glyph glyph-name="ohungarumlaut" unicode="&#x151;" horiz-adv-x="1239" 
d="M537 1167h-193l150 291h264zM692 1167l148 291h264l-219 -291h-193zM621 1038q231 0 386 -148q156 -148 156 -382q0 -233 -157 -383q-158 -150 -385 -150q-230 0 -389 150q-158 149 -158 383t158 382t389 148zM621 160q135 0 235 97t100 251t-100 251t-235 97
q-141 0 -239 -97q-99 -97 -99 -251t99 -251q98 -97 239 -97z" />
    <glyph glyph-name="OE" unicode="&#x152;" horiz-adv-x="2125" 
d="M2009 199v-199h-1120q-358 0 -574 191q-217 192 -217 495q0 302 217 494t574 192h1116v-198h-799v-388h740v-196h-740v-391h803zM985 199v975h-96q-262 0 -417 -135q-153 -133 -153 -353q0 -219 153 -353q154 -134 417 -134h96z" />
    <glyph glyph-name="oe" unicode="&#x153;" horiz-adv-x="2064" 
d="M1991 530v-73h-824q15 -137 103 -219t205 -82q210 0 299 176l190 -41q-62 -158 -189 -239t-300 -81q-124 0 -236 56q-111 55 -182 155q-72 -96 -189 -152q-116 -55 -247 -55q-230 0 -389 150q-158 149 -158 383t158 382t389 148q133 0 247 -54q116 -55 189 -153
q73 103 183 158t243 55q206 0 353 -144t155 -370zM621 160q135 0 235 97t100 251t-100 251t-235 97q-141 0 -239 -97q-99 -97 -99 -251t99 -251q98 -97 239 -97zM1483 856q-108 0 -197 -65q-89 -66 -112 -183h598q-24 121 -103 185q-78 63 -186 63z" />
    <glyph glyph-name="Racute" unicode="&#x154;" horiz-adv-x="1376" 
d="M778 1518h-182l149 290h250zM1341 0h-272l-489 547h-199v-547h-219v1372h645q211 0 341 -114t130 -300q0 -176 -118 -287q-119 -112 -314 -122zM381 745h426q112 0 182 59t70 154t-70 156q-69 60 -182 60h-426v-429z" />
    <glyph glyph-name="racute" unicode="&#x155;" horiz-adv-x="860" 
d="M557 1161h-182l149 291h250zM762 1028q43 0 72 -8l-15 -205q-22 2 -59 2q-188 0 -287 -122q-98 -120 -98 -337v-358h-213v1016h213v-217q139 229 387 229z" />
    <glyph glyph-name="Rcommaaccent" unicode="&#x156;" horiz-adv-x="1376" 
d="M1341 0h-272l-489 547h-199v-547h-219v1372h645q211 0 341 -114t130 -300q0 -176 -118 -287q-119 -112 -314 -122zM381 745h426q112 0 182 59t70 154t-70 156q-69 60 -182 60h-426v-429zM592 -92h231l-172 -299h-162z" />
    <glyph glyph-name="rcommaaccent" unicode="&#x157;" horiz-adv-x="860" 
d="M762 1028q43 0 72 -8l-15 -205q-22 2 -59 2q-188 0 -287 -122q-98 -120 -98 -337v-358h-213v1016h213v-217q139 229 387 229zM156 -92h231l-172 -299h-162z" />
    <glyph glyph-name="Rcaron" unicode="&#x158;" horiz-adv-x="1376" 
d="M578 1501l-236 299h213l125 -160l123 160h215l-238 -299h-202zM1341 0h-272l-489 547h-199v-547h-219v1372h645q211 0 341 -114t130 -300q0 -176 -118 -287q-119 -112 -314 -122zM381 745h426q112 0 182 59t70 154t-70 156q-69 60 -182 60h-426v-429z" />
    <glyph glyph-name="rcaron" unicode="&#x159;" horiz-adv-x="860" 
d="M356 1145l-235 299h213l125 -160l123 160h215l-238 -299h-203zM762 1028q43 0 72 -8l-15 -205q-22 2 -59 2q-188 0 -287 -122q-98 -120 -98 -337v-358h-213v1016h213v-217q139 229 387 229z" />
    <glyph glyph-name="Sacute" unicode="&#x15a;" horiz-adv-x="1298" 
d="M766 1518h-182l149 290h250zM641 1401q207 0 349 -105q142 -104 179 -282l-219 -45q-18 109 -104 175t-209 66q-122 0 -195 -58t-73 -151q0 -71 42 -112q44 -42 132 -60l297 -63q352 -78 352 -375q0 -192 -144 -306t-382 -114q-227 0 -385 108q-159 109 -183 300l234 49
q24 -130 119 -196t235 -66q136 0 212 58q77 59 77 155q0 78 -44 119q-43 40 -149 63l-299 62q-346 79 -346 372q0 183 138 294q139 112 366 112z" />
    <glyph glyph-name="sacute" unicode="&#x15b;" horiz-adv-x="1032" 
d="M629 1161h-183l150 291h250zM76 272l213 45q11 -86 79 -129t175 -43q93 0 146 37q54 38 54 99q0 90 -137 120l-221 45q-276 62 -276 277q0 144 109 232q110 89 292 89q173 0 286 -80t142 -212l-203 -43q-12 75 -73 120t-158 45q-88 0 -134 -37t-46 -96q0 -86 122 -114
l242 -54q127 -28 195 -97q69 -70 69 -177q0 -157 -116 -242q-118 -86 -312 -86q-180 0 -305 77t-143 224z" />
    <glyph glyph-name="Scedilla" unicode="&#x15e;" horiz-adv-x="1298" 
d="M1192 391q0 -174 -119 -285q-117 -110 -321 -131l-123 -313h-228l187 313q-200 18 -333 123q-135 106 -157 281l234 49q24 -130 119 -196t235 -66q136 0 212 58q77 59 77 155q0 78 -44 119q-43 40 -149 63l-299 62q-346 79 -346 372q0 183 138 294q139 112 366 112
q207 0 349 -105q142 -104 179 -282l-219 -45q-18 109 -104 175t-209 66q-122 0 -195 -58t-73 -151q0 -71 42 -112q44 -42 132 -60l297 -63q352 -78 352 -375z" />
    <glyph glyph-name="scedilla" unicode="&#x15f;" horiz-adv-x="1032" 
d="M952 299q0 -133 -86 -216q-87 -84 -237 -106l-125 -315h-228l185 311q-156 12 -262 89q-105 76 -123 210l213 45q11 -86 79 -129t175 -43q93 0 146 37q54 38 54 99q0 90 -137 120l-221 45q-276 62 -276 277q0 144 109 232q110 89 292 89q173 0 286 -80t142 -212l-203 -43
q-12 75 -73 120t-158 45q-88 0 -134 -37t-46 -96q0 -86 122 -114l242 -54q127 -28 195 -97q69 -70 69 -177z" />
    <glyph glyph-name="Scaron" unicode="&#x160;" horiz-adv-x="1298" 
d="M565 1501l-235 299h213l125 -160l123 160h215l-238 -299h-203zM543 829l297 -63q352 -78 352 -375q0 -192 -144 -306t-382 -114q-227 0 -385 108q-159 109 -183 300l234 49q24 -130 119 -196t235 -66q136 0 212 58q77 59 77 155q0 78 -44 119q-43 40 -149 63l-299 62
q-346 79 -346 372q0 183 138 294q139 112 366 112q207 0 349 -105q142 -104 179 -282l-219 -45q-18 109 -104 175t-209 66q-122 0 -195 -58t-73 -151q0 -71 42 -112q44 -42 132 -60z" />
    <glyph glyph-name="scaron" unicode="&#x161;" horiz-adv-x="1032" 
d="M428 1145l-235 299h213l124 -160l123 160h215l-237 -299h-203zM446 627l242 -54q127 -28 195 -97q69 -70 69 -177q0 -157 -116 -242q-118 -86 -312 -86q-180 0 -305 77t-143 224l213 45q11 -86 79 -129t175 -43q93 0 146 37q54 38 54 99q0 90 -137 120l-221 45
q-276 62 -276 277q0 144 109 232q110 89 292 89q173 0 286 -80t142 -212l-203 -43q-12 75 -73 120t-158 45q-88 0 -134 -37t-46 -96q0 -86 122 -114z" />
    <glyph glyph-name="tcedilla" unicode="&#x163;" horiz-adv-x="847" 
d="M772 227l66 -178q-118 -72 -232 -78l-123 -309h-227l195 328q-232 69 -232 356v494h-219v176h219v315h213v-315h348v-176h-348v-480q0 -92 45 -140t123 -48q89 0 172 55z" />
    <glyph glyph-name="Tcaron" unicode="&#x164;" horiz-adv-x="1280" 
d="M541 1501l-236 299h213l125 -160l123 160h215l-238 -299h-202zM1233 1174h-483v-1174h-222v1174h-481v198h1186v-198z" />
    <glyph glyph-name="tcaron" unicode="&#x165;" horiz-adv-x="847" 
d="M723 1110h-168v381h215zM772 227l66 -178q-130 -78 -252 -78q-168 0 -269 96q-98 94 -98 279v494h-219v176h219v315h213v-315h348v-176h-348v-480q0 -92 45 -140t123 -48q89 0 172 55z" />
    <glyph glyph-name="Tbar" unicode="&#x166;" horiz-adv-x="1290" 
d="M750 1174v-396h260v-184h-260v-594h-222v594h-258v184h258v396h-481v198h1186v-198h-483z" />
    <glyph glyph-name="tbar" unicode="&#x167;" horiz-adv-x="847" 
d="M762 227l43 -186q-116 -70 -230 -70q-167 0 -268 96q-98 94 -98 279v174h-184v174h184v146h-207v176h207v315h213v-315h348v-176h-348v-146h270v-174h-270v-160q0 -92 45 -140t123 -48q89 0 172 55z" />
    <glyph glyph-name="Umacron" unicode="&#x16a;" horiz-adv-x="1466" 
d="M1042 1540h-616v174h616v-174zM1319 1372v-766q0 -283 -160 -460q-159 -175 -420 -175q-266 0 -429 175t-163 460v766h220v-766q0 -192 102 -308t270 -116q162 0 261 117q100 118 100 307v766h219z" />
    <glyph glyph-name="umacron" unicode="&#x16b;" horiz-adv-x="1269" 
d="M936 1184h-617v174h617v-174zM1108 1016v-1016h-213v125q-130 -154 -350 -154q-185 0 -296 120q-112 121 -112 312v613h213v-570q0 -123 67 -201q66 -77 177 -77q142 0 221 96q80 97 80 283v469h213z" />
    <glyph glyph-name="Uring" unicode="&#x16e;" horiz-adv-x="1466" 
d="M733 1479q-96 0 -161 64q-66 65 -66 155q0 92 66 156q67 65 161 65q95 0 162 -65q66 -64 66 -156q0 -93 -66 -156t-162 -63zM733 1794q-41 0 -71 -28q-29 -27 -29 -68q0 -39 29 -68q28 -28 71 -28q44 0 72 28q29 29 29 68q0 41 -29 68q-30 28 -72 28zM1319 1372v-766
q0 -283 -160 -460q-159 -175 -420 -175q-266 0 -429 175t-163 460v766h220v-766q0 -192 102 -308t270 -116q162 0 261 117q100 118 100 307v766h219z" />
    <glyph glyph-name="uring" unicode="&#x16f;" horiz-adv-x="1269" 
d="M627 1120q-94 0 -161 65t-67 154q0 92 67 157t161 65t161 -65q66 -64 66 -157q0 -92 -66 -155q-67 -64 -161 -64zM627 1436q-42 0 -72 -28q-29 -27 -29 -69q0 -38 29 -67t72 -29q42 0 71 29t29 67q0 42 -29 69q-30 28 -71 28zM1108 1016v-1016h-213v125
q-130 -154 -350 -154q-185 0 -296 120q-112 121 -112 312v613h213v-570q0 -123 67 -201q66 -77 177 -77q142 0 221 96q80 97 80 283v469h213z" />
    <glyph glyph-name="Uhungarumlaut" unicode="&#x170;" horiz-adv-x="1466" 
d="M649 1518h-192l149 290h264zM805 1518l147 290h265l-220 -290h-192zM1319 1372v-766q0 -283 -160 -460q-159 -175 -420 -175q-266 0 -429 175t-163 460v766h220v-766q0 -192 102 -308t270 -116q162 0 261 117q100 118 100 307v766h219z" />
    <glyph glyph-name="uhungarumlaut" unicode="&#x171;" horiz-adv-x="1269" 
d="M543 1161h-193l150 291h264zM698 1161l148 291h264l-219 -291h-193zM895 1016h213v-1016h-213v125q-130 -154 -350 -154q-185 0 -296 120q-112 121 -112 312v613h213v-570q0 -123 67 -201q66 -77 177 -77q142 0 221 96q80 97 80 283v469z" />
    <glyph glyph-name="Uogonek" unicode="&#x172;" horiz-adv-x="1466" 
d="M1116 104q-99 -90 -132 -123q-31 -31 -60 -78q-27 -44 -27 -91q0 -33 23 -54q21 -20 57 -20q28 0 113 29l40 -136q-107 -55 -206 -55q-88 0 -147 48q-58 48 -58 126q0 120 110 230q-49 -9 -90 -9q-265 0 -429 171q-163 170 -163 448v782h220v-782q0 -185 102 -296
q103 -112 270 -112q161 0 261 112t100 296v782h219v-782q0 -294 -203 -486z" />
    <glyph glyph-name="uogonek" unicode="&#x173;" horiz-adv-x="1269" 
d="M1143 -250l12 -133q-84 -37 -158 -37q-77 0 -130 44q-52 43 -52 132q0 64 33 119q33 56 113 125h-66v125q-130 -154 -350 -154q-185 0 -296 120q-112 121 -112 312v613h213v-570q0 -123 67 -201q66 -77 177 -77q142 0 221 96q80 97 80 283v469h213v-1016h2
q-65 -72 -82 -91q-17 -20 -36 -53q-17 -30 -17 -61q0 -67 69 -67q29 0 99 22z" />
    <glyph glyph-name="Wcircumflex" unicode="&#x174;" horiz-adv-x="1961" 
d="M858 1501h-213l236 297h202l238 -297h-215l-123 158zM1933 1372l-411 -1372h-234l-307 1020l-309 -1020h-234l-409 1372h229l301 -1034l315 1034h211l316 -1034l301 1034h231z" />
    <glyph glyph-name="wcircumflex" unicode="&#x175;" horiz-adv-x="1593" 
d="M674 1145h-213l235 297h203l238 -297h-215l-123 158zM1565 1016l-340 -1020h-195l-233 684l-234 -684h-194l-340 1020h213l231 -707l240 707h168l239 -707l232 707h213z" />
    <glyph glyph-name="Ycircumflex" unicode="&#x176;" horiz-adv-x="1394" 
d="M573 1501h-213l236 297h203l237 -297h-215l-123 158zM803 459v-459h-219v455l-555 917h243l422 -688l420 688h252z" />
    <glyph glyph-name="ycircumflex" unicode="&#x177;" horiz-adv-x="1173" 
d="M453 1149h-213l235 297h203l237 -297h-215l-122 158zM1147 1018l-608 -1366h-238l166 373l-438 993h237l318 -733l325 733h238z" />
    <glyph glyph-name="Ydieresis" unicode="&#x178;" horiz-adv-x="1394" 
d="M485 1524q-60 0 -97 37q-38 38 -38 94q0 53 39 93t96 40q58 0 97 -40t39 -93q0 -56 -38 -94q-37 -37 -98 -37zM909 1524q-60 0 -97 37q-38 38 -38 94q0 53 39 93t96 40q58 0 97 -40q38 -39 38 -93q0 -57 -37 -94t-98 -37zM803 459v-459h-219v455l-555 917h243l422 -688
l420 688h252z" />
    <glyph glyph-name="Zacute" unicode="&#x179;" horiz-adv-x="1280" 
d="M754 1518h-183l150 290h250zM1186 188v-188h-1077v141l786 1043h-764v188h1045v-164l-756 -1020h766z" />
    <glyph glyph-name="zacute" unicode="&#x17a;" horiz-adv-x="1054" 
d="M641 1161h-182l149 291h250zM973 176v-176h-891v141l604 699h-588v176h850v-144l-604 -696h629z" />
    <glyph glyph-name="Zdotaccent" unicode="&#x17b;" horiz-adv-x="1280" 
d="M653 1540q-57 0 -94 37t-37 92q0 53 38 91t93 38t95 -38q38 -37 38 -91q0 -55 -37 -92t-96 -37zM1186 188v-188h-1077v141l786 1043h-764v188h1045v-164l-756 -1020h766z" />
    <glyph glyph-name="zdotaccent" unicode="&#x17c;" horiz-adv-x="1054" 
d="M539 1184q-58 0 -95 37q-36 36 -36 92q0 54 37 91q38 38 94 38q54 0 94 -38q39 -38 39 -91q0 -54 -38 -92q-37 -37 -95 -37zM973 176v-176h-891v141l604 699h-588v176h850v-144l-604 -696h629z" />
    <glyph glyph-name="Zcaron" unicode="&#x17d;" horiz-adv-x="1280" 
d="M553 1501l-236 299h213l125 -160l123 160h215l-237 -299h-203zM1186 188v-188h-1077v141l786 1043h-764v188h1045v-164l-756 -1020h766z" />
    <glyph glyph-name="zcaron" unicode="&#x17e;" horiz-adv-x="1054" 
d="M440 1145l-235 299h213l125 -160l123 160h215l-238 -299h-203zM973 176v-176h-891v141l604 699h-588v176h850v-144l-604 -696h629z" />
    <glyph glyph-name="florin" unicode="&#x192;" horiz-adv-x="1165" 
d="M883 1208q-85 0 -142 -51q-56 -50 -73 -143l-45 -248h350v-176h-383l-111 -610q-27 -147 -124 -232q-98 -86 -238 -86q-97 0 -189 53l70 172q60 -24 121 -24q57 0 99 33q41 33 52 84l109 610h-229v176h260l45 248q33 176 149 280q117 105 291 105q137 0 238 -74l-76 -174
q-73 57 -174 57z" />
    <glyph glyph-name="AEacute" unicode="&#x1fc;" horiz-adv-x="2131" 
d="M1485 1518h-182l149 290h250zM2044 199v-199h-1022v285h-565l-193 -285h-254l953 1372h1079v-198h-801v-388h739v-196h-739v-391h803zM1022 483v641l-432 -641h432z" />
    <glyph glyph-name="aeacute" unicode="&#x1fd;" horiz-adv-x="1871" 
d="M1022 1161h-182l149 291h250zM1798 436h-803q22 -133 104 -207q80 -73 206 -73q79 0 157 42q79 42 119 132l191 -41q-39 -141 -173 -230q-133 -88 -299 -88q-267 0 -411 205q-62 -91 -177 -148q-114 -57 -251 -57q-187 0 -287 90t-100 228q0 140 107 220q108 81 296 81
h322v61q0 96 -64 155q-62 58 -168 58q-101 0 -164 -48t-75 -134l-195 43q17 142 135 230q119 89 303 89q241 0 357 -161q143 161 366 161q215 0 358 -149q145 -151 146 -385v-74zM995 590h588q-21 132 -97 202t-183 70q-118 0 -204 -71q-88 -72 -104 -201zM799 436h-322
q-93 0 -146 -38q-52 -37 -52 -103q0 -68 55 -110q56 -42 151 -42q126 0 220 79t94 192v22z" />
    <glyph glyph-name="Scommaaccent" unicode="&#x218;" horiz-adv-x="1298" 
d="M641 1401q207 0 349 -105q142 -104 179 -282l-219 -45q-18 109 -104 175t-209 66q-122 0 -195 -58t-73 -151q0 -71 42 -112q44 -42 132 -60l297 -63q352 -78 352 -375q0 -192 -144 -306t-382 -114q-227 0 -385 108q-159 109 -183 300l234 49q24 -130 119 -196t235 -66
q136 0 212 58q77 59 77 155q0 78 -44 119q-43 40 -149 63l-299 62q-346 79 -346 372q0 183 138 294q139 112 366 112zM444 -391l103 299h231l-172 -299h-162z" />
    <glyph glyph-name="scommaaccent" unicode="&#x219;" horiz-adv-x="1032" 
d="M76 272l213 45q11 -86 79 -129t175 -43q93 0 146 37q54 38 54 99q0 90 -137 120l-221 45q-276 62 -276 277q0 144 109 232q110 89 292 89q173 0 286 -80t142 -212l-203 -43q-12 75 -73 120t-158 45q-88 0 -134 -37t-46 -96q0 -86 122 -114l242 -54q127 -28 195 -97
q69 -70 69 -177q0 -157 -116 -242q-118 -86 -312 -86q-180 0 -305 77t-143 224zM319 -391l103 299h231l-172 -299h-162z" />
    <glyph glyph-name="uni021A" unicode="&#x21a;" horiz-adv-x="1280" 
d="M1233 1372v-198h-483v-1174h-222v1174h-481v198h1186zM530 -92h232l-172 -299h-162z" />
    <glyph glyph-name="uni021B" unicode="&#x21b;" horiz-adv-x="847" 
d="M586 -29q-168 0 -269 96q-98 94 -98 279v494h-219v176h219v315h213v-315h348v-176h-348v-480q0 -92 45 -140t123 -48q89 0 172 55l66 -178q-130 -78 -252 -78zM401 -92h232l-172 -299h-162z" />
    <glyph glyph-name="circumflex" unicode="&#x2c6;" horiz-adv-x="1228" 
d="M739 1145l-123 158l-124 -158h-213l235 297h203l237 -297h-215z" />
    <glyph glyph-name="caron" unicode="&#x2c7;" horiz-adv-x="1228" 
d="M954 1444l-237 -299h-203l-235 299h213l124 -160l123 160h215z" />
    <glyph glyph-name="breve" unicode="&#x2d8;" horiz-adv-x="1228" 
d="M614 1128q-146 0 -232 79q-87 79 -87 212h178q0 -62 41 -103q40 -40 100 -40q63 0 103 40q41 41 41 103h176q0 -133 -87 -212q-86 -79 -233 -79z" />
    <glyph glyph-name="dotaccent" unicode="&#x2d9;" horiz-adv-x="1228" 
d="M614 1442q55 0 95 -38q39 -38 39 -91q0 -54 -38 -92q-37 -37 -96 -37q-57 0 -94 37t-37 92q0 53 38 91t93 38z" />
    <glyph glyph-name="ring" unicode="&#x2da;" horiz-adv-x="1228" 
d="M842 1339q0 -92 -66 -155q-67 -64 -162 -64q-93 0 -160 65t-67 154q0 92 67 157t160 65q95 0 162 -65q66 -64 66 -157zM715 1339q0 42 -29 69q-30 28 -72 28q-41 0 -71 -28q-29 -27 -29 -69q0 -38 29 -67t71 -29q43 0 72 29t29 67z" />
    <glyph glyph-name="ogonek" unicode="&#x2db;" horiz-adv-x="1228" 
d="M522 2l148 -2q-65 -72 -82 -91q-17 -20 -36 -53q-17 -30 -17 -61q0 -67 69 -67q28 0 98 22l13 -133q-84 -37 -158 -37q-77 0 -130 44q-52 43 -52 132q0 64 33 119q34 57 114 127z" />
    <glyph glyph-name="tilde" unicode="&#x2dc;" horiz-adv-x="1228" 
d="M440 1206h-145q0 126 59 182t140 56q69 0 140 -44t111 -44q31 0 49 24q17 23 17 64h143q0 -129 -57 -186q-56 -56 -139 -56q-74 0 -142 43t-108 43q-31 0 -49 -22q-19 -24 -19 -60z" />
    <glyph glyph-name="hungarumlaut" unicode="&#x2dd;" horiz-adv-x="1228" 
d="M453 1161h-193l150 291h264zM801 1161h-193l148 291h264z" />
    <glyph glyph-name="uni0326" unicode="&#x326;" horiz-adv-x="0" 
d="M430 -391l102 299h232l-172 -299h-162z" />
    <glyph glyph-name="Wgrave" unicode="&#x1e80;" horiz-adv-x="1961" 
d="M887 1518l-217 290h250l149 -290h-182zM1933 1372l-411 -1372h-234l-307 1020l-309 -1020h-234l-409 1372h229l301 -1034l315 1034h211l316 -1034l301 1034h231z" />
    <glyph glyph-name="wgrave" unicode="&#x1e81;" horiz-adv-x="1593" 
d="M705 1161l-218 291h250l150 -291h-182zM1565 1016l-340 -1020h-195l-233 684l-234 -684h-194l-340 1020h213l231 -707l240 707h168l239 -707l232 707h213z" />
    <glyph glyph-name="Wacute" unicode="&#x1e82;" horiz-adv-x="1961" 
d="M1081 1518h-182l150 290h249zM1933 1372l-411 -1372h-234l-307 1020l-309 -1020h-234l-409 1372h229l301 -1034l315 1034h211l316 -1034l301 1034h231z" />
    <glyph glyph-name="wacute" unicode="&#x1e83;" horiz-adv-x="1593" 
d="M897 1161h-182l149 291h250zM1565 1016l-340 -1020h-195l-233 684l-234 -684h-194l-340 1020h213l231 -707l240 707h168l239 -707l232 707h213z" />
    <glyph glyph-name="Wdieresis" unicode="&#x1e84;" horiz-adv-x="1961" 
d="M770 1524q-60 0 -97 37q-38 38 -38 94q0 53 39 93t96 40t96 -40t39 -93q0 -56 -38 -94q-37 -37 -97 -37zM1194 1524q-60 0 -97 37q-38 38 -38 94q0 53 39 93t96 40t96 -40t39 -93q0 -56 -38 -94q-37 -37 -97 -37zM1933 1372l-411 -1372h-234l-307 1020l-309 -1020h-234
l-409 1372h229l301 -1034l315 1034h211l316 -1034l301 1034h231z" />
    <glyph glyph-name="wdieresis" unicode="&#x1e85;" horiz-adv-x="1593" 
d="M586 1167q-61 0 -98 37t-37 94q0 55 38 94q39 40 97 40q57 0 96 -40t39 -94q0 -56 -38 -94q-37 -37 -97 -37zM1010 1167q-61 0 -98 37q-38 38 -38 94q0 54 39 94t97 40q57 0 96 -40t39 -94q0 -56 -38 -94q-37 -37 -97 -37zM1565 1016l-340 -1020h-195l-233 684l-234 -684
h-194l-340 1020h213l231 -707l240 707h168l239 -707l232 707h213z" />
    <glyph glyph-name="Ygrave" unicode="&#x1ef2;" horiz-adv-x="1394" 
d="M602 1518l-217 290h250l149 -290h-182zM803 459v-459h-219v455l-555 917h243l422 -688l420 688h252z" />
    <glyph glyph-name="ygrave" unicode="&#x1ef3;" horiz-adv-x="1173" 
d="M481 1165l-217 291h250l150 -291h-183zM1147 1018l-608 -1366h-238l166 373l-438 993h237l318 -733l325 733h238z" />
    <glyph glyph-name="endash" unicode="&#x2013;" horiz-adv-x="1269" 
d="M1147 440h-1024v164h1024v-164z" />
    <glyph glyph-name="emdash" unicode="&#x2014;" horiz-adv-x="2129" 
d="M2007 440h-1884v164h1884v-164z" />
    <glyph glyph-name="quoteleft" unicode="&#x2018;" horiz-adv-x="544" 
d="M299 1372h162l-129 -543h-248v5z" />
    <glyph glyph-name="quoteright" unicode="&#x2019;" horiz-adv-x="544" 
d="M248 829h-164l129 543h248v-6z" />
    <glyph glyph-name="quotesinglbase" unicode="&#x201a;" horiz-adv-x="544" 
d="M248 -270h-164l129 544h248v-6z" />
    <glyph glyph-name="quotedblleft" unicode="&#x201c;" horiz-adv-x="909" 
d="M299 1372h162l-129 -543h-248v5zM662 1372h161l-129 -543h-248v5z" />
    <glyph glyph-name="quotedblright" unicode="&#x201d;" horiz-adv-x="909" 
d="M248 829h-164l129 543h248v-6zM610 829h-161l129 543h247v-6z" />
    <glyph glyph-name="quotedblbase" unicode="&#x201e;" horiz-adv-x="909" 
d="M248 -270h-164l129 544h248v-6zM610 -270h-161l129 544h247v-6z" />
    <glyph glyph-name="dagger" unicode="&#x2020;" horiz-adv-x="780" 
d="M694 1331v-139h-229v-500h-150v500h-227v139h227v185h150v-185h229z" />
    <glyph glyph-name="daggerdbl" unicode="&#x2021;" horiz-adv-x="780" 
d="M465 1192v-176h229v-139h-229v-185h-150v185h-227v139h227v176h-227v139h227v185h150v-185h229v-139h-229z" />
    <glyph glyph-name="bullet" unicode="&#x2022;" horiz-adv-x="839" 
d="M420 852q139 0 233 -94q95 -95 95 -223q0 -135 -94 -226q-93 -90 -234 -90q-142 0 -235 90t-93 226q0 129 94 223t234 94z" />
    <glyph glyph-name="ellipsis" unicode="&#x2026;" horiz-adv-x="1456" 
d="M227 252q58 0 96 -38q37 -37 37 -91q0 -56 -37 -93q-38 -38 -96 -38q-56 0 -96 38q-39 38 -39 93q0 53 39 91q40 38 96 38zM729 252q57 0 95 -38t38 -91q0 -55 -38 -93t-95 -38q-56 0 -96 38q-39 38 -39 93q0 53 39 91q40 38 96 38zM1231 252q57 0 95 -38t38 -91
q0 -55 -38 -93t-95 -38q-56 0 -96 38q-39 38 -39 93q0 53 39 91q40 38 96 38z" />
    <glyph glyph-name="perthousand" unicode="&#x2030;" horiz-adv-x="2529" 
d="M432 1401q143 0 241 -91q99 -92 99 -239q0 -143 -99 -235q-101 -93 -241 -93t-241 93q-99 92 -99 235q0 147 99 239q98 91 241 91zM272 0l1016 1372h146l-1016 -1372h-146zM432 1253q-72 0 -125 -50t-53 -130q0 -82 53 -132t125 -50t125 50t53 132q0 80 -53 130
q-55 50 -125 50zM1288 629q143 0 241 -91q99 -92 99 -237q0 -147 -99 -238q-100 -92 -241 -92q-140 0 -240 92t-100 238q0 145 100 237q98 91 240 91zM2097 629q143 0 241 -91q99 -92 99 -237q0 -147 -99 -238q-100 -92 -241 -92q-140 0 -240 92t-100 238q0 145 100 237
q98 91 240 91zM1288 483q-72 0 -125 -50t-53 -132q0 -80 53 -130t125 -50t125 50t53 130q0 82 -53 132q-55 50 -125 50zM2097 483q-72 0 -125 -50t-53 -132q0 -80 53 -130t125 -50t125 50t53 130q0 82 -53 132t-125 50z" />
    <glyph glyph-name="guilsinglleft" unicode="&#x2039;" horiz-adv-x="555" 
d="M51 537l240 364h213l-240 -364l240 -365h-213z" />
    <glyph glyph-name="guilsinglright" unicode="&#x203a;" horiz-adv-x="555" 
d="M51 172l240 365l-240 364h213l240 -364l-240 -365h-213z" />
    <glyph glyph-name="fraction" unicode="&#x2044;" horiz-adv-x="464" 
d="M-365 0l1018 1372h146l-1018 -1372h-146z" />
    <glyph glyph-name="Euro" unicode="&#x20ac;" horiz-adv-x="1607" 
d="M952 178q121 0 210 80q88 79 132 238l217 -47q-56 -221 -202 -349q-147 -129 -357 -129q-211 0 -359 130q-150 131 -202 356h-229v157h207q-2 30 -2 72q0 38 2 66h-207v155h227q51 226 202 361q149 133 361 133q210 0 357 -129q146 -128 202 -348l-223 -45
q-34 154 -125 236q-90 81 -211 81q-118 0 -206 -77q-87 -77 -128 -212h480l-37 -155h-469q-2 -28 -2 -66q0 -42 2 -72h434l-37 -157h-366q41 -131 127 -205t202 -74z" />
    <glyph glyph-name="uni2116" unicode="&#x2116;" horiz-adv-x="2480" 
d="M1958 696q-147 0 -253 98t-106 250q0 153 106 251t253 98q150 0 256 -98q104 -97 104 -251q0 -153 -104 -250q-106 -98 -256 -98zM1176 1372h221v-1372h-187l-829 985v-985h-219v1372h186l828 -1001v1001zM1958 1235q-74 0 -129 -54t-55 -137q0 -82 55 -136t129 -54
q77 0 134 54q56 53 56 136q0 84 -56 137q-57 54 -134 54zM1620 565h678v-174h-678v174z" />
    <glyph glyph-name="uni2117" unicode="&#x2117;" horiz-adv-x="1568" 
d="M780 1401q297 0 505 -205t208 -514q0 -306 -208 -508q-209 -203 -505 -203q-299 0 -508 203t-209 508q0 308 209 514q208 205 508 205zM780 70q253 0 429 175q177 175 177 439q0 266 -177 443q-178 178 -429 178q-252 0 -432 -178q-178 -177 -178 -443q0 -264 178 -439
t432 -175zM514 1057h338q133 0 213 -71t80 -187q0 -122 -79 -194q-81 -73 -214 -73h-207v-229h-131v754zM645 653h199q79 0 125 40q47 41 47 106q0 63 -47 101t-125 38h-199v-285z" />
    <glyph glyph-name="trademark" unicode="&#x2122;" horiz-adv-x="1349" 
d="M563 1266h-182v-445h-127v445h-180v106h489v-106zM1253 821h-118v326l-150 -324h-76l-149 324v-326h-119v551h137l170 -350l170 350h135v-551z" />
    <glyph glyph-name="oneeighth" unicode="&#x215b;" horiz-adv-x="1605" 
d="M205 1163l-160 -100v168l215 141h102v-768h-157v559zM1305 1372l-1016 -1372h-146l1016 1372h146zM1376 395q156 -47 156 -194q0 -97 -84 -160q-85 -64 -221 -64q-135 0 -222 64q-85 63 -85 160q0 149 153 196q-123 47 -123 168q0 89 80 149t199 60q115 0 195 -60
q79 -60 79 -149q0 -121 -127 -170zM1227 659q-60 0 -99 -30q-38 -29 -38 -80q0 -45 39 -74q42 -31 98 -31q57 0 95 30q39 31 40 75q0 50 -38 80t-97 30zM1227 104q61 0 102 32t41 83q0 49 -39 82t-104 33q-66 0 -107 -32t-41 -83t41 -83t107 -32z" />
    <glyph glyph-name="threeeighths" unicode="&#x215c;" horiz-adv-x="1759" 
d="M639 840q0 -104 -81 -173t-208 -69q-126 0 -208 69q-83 69 -87 185l133 33q5 -74 49 -115t115 -41q64 0 102 32t38 83q0 50 -38 77q-37 27 -100 27h-78v113h68q60 0 98 26q39 27 39 72q0 47 -37 77t-96 30q-66 0 -106 -38q-39 -38 -41 -108l-138 33q7 110 85 175
q77 65 198 65q123 0 201 -66t78 -164q0 -107 -105 -153q119 -53 119 -170zM1450 1372l-1016 -1372h-145l1016 1372h145zM1522 395q155 -46 155 -194q0 -97 -84 -160q-85 -64 -221 -64q-135 0 -222 64q-85 63 -85 160q0 149 154 196q-123 47 -123 168q0 89 80 149t198 60
q116 0 196 -60q79 -60 79 -149q0 -121 -127 -170zM1372 659q-59 0 -98 -30t-39 -80q0 -44 40 -74q42 -31 97 -31q58 0 95 30q39 31 40 75q0 50 -38 80q-37 30 -97 30zM1372 104q62 0 103 32t41 83q0 49 -39 82t-105 33q-65 0 -106 -32t-41 -83t41 -83t106 -32z" />
    <glyph glyph-name="fiveeighths" unicode="&#x215d;" horiz-adv-x="1710" 
d="M649 852q0 -117 -81 -189q-82 -73 -212 -73q-121 0 -204 65q-85 67 -97 162l150 27q12 -54 53 -88q40 -33 98 -33q62 0 102 33t40 90q0 58 -42 88q-43 31 -108 31h-258l21 407h499v-139h-364l-8 -137h155q111 0 184 -67q72 -66 72 -177zM1432 1372l-1016 -1372h-146
l1016 1372h146zM1481 395q155 -46 155 -194q0 -97 -84 -160q-85 -64 -221 -64q-135 0 -222 64q-85 63 -85 160q0 149 154 196q-123 47 -123 168q0 89 80 149q79 60 198 60q116 0 196 -60q79 -60 79 -149q0 -121 -127 -170zM1331 659q-59 0 -98 -30t-39 -80q0 -44 40 -74
q42 -31 97 -31q57 0 95 30q39 31 40 75q0 50 -38 80t-97 30zM1331 104q62 0 103 32t41 83q0 49 -39 82t-105 33q-65 0 -106 -32t-41 -83t41 -83t106 -32z" />
    <glyph glyph-name="seveneighths" unicode="&#x215e;" horiz-adv-x="1519" 
d="M406 1233h-392v139h561v-121l-296 -645h-170zM1249 1372l-1016 -1372h-145l1016 1372h145zM1290 395q156 -47 156 -194q0 -97 -84 -160q-85 -64 -221 -64q-135 0 -222 64q-85 63 -85 160q0 149 153 196q-123 47 -123 168q0 89 80 149t199 60q115 0 195 -60
q79 -60 79 -149q0 -121 -127 -170zM1141 659q-60 0 -99 -30q-38 -29 -38 -80q0 -45 39 -74q42 -31 98 -31q57 0 95 30q39 31 40 75q0 50 -38 80t-97 30zM1141 104q61 0 102 32t41 83q0 49 -39 82t-104 33q-66 0 -107 -32t-41 -83t41 -83t107 -32z" />
    <glyph glyph-name="arrowleft" unicode="&#x2190;" horiz-adv-x="1488" 
d="M1407 553h-963l414 -414l-156 -157l-682 682l685 684l155 -158l-416 -416h963v-221z" />
    <glyph glyph-name="arrowup" unicode="&#x2191;" horiz-adv-x="1529" 
d="M1292 549l-415 416v-965h-222v965l-415 -418l-158 155l684 684l682 -681z" />
    <glyph glyph-name="arrowright" unicode="&#x2192;" horiz-adv-x="1488" 
d="M1468 664l-682 -682l-155 157l416 414h-965v221h965l-418 416l155 158z" />
    <glyph glyph-name="arrowdown" unicode="&#x2193;" horiz-adv-x="1529" 
d="M1448 668l-682 -682l-684 684l158 155l415 -415v962h222v-962l415 413z" />
    <glyph glyph-name="uni2196" unicode="&#x2196;" horiz-adv-x="1529" 
d="M1292 -16l-1009 1011v-630h-222v1007h1006v-219h-631l1012 -1012z" />
    <glyph glyph-name="uni2197" unicode="&#x2197;" horiz-adv-x="1529" 
d="M1468 1372v-1007h-221v632l-1009 -1013l-156 157l1010 1012h-629l-2 219h1007z" />
    <glyph glyph-name="uni2198" unicode="&#x2198;" horiz-adv-x="1529" 
d="M1468 1008v-1008h-1007l2 221h629l-1010 1010l156 158l1009 -1014v633h221z" />
    <glyph glyph-name="uni2199" unicode="&#x2199;" horiz-adv-x="1529" 
d="M436 221h631v-221h-1006v1008h222v-631l1009 1012l156 -158z" />
    <glyph glyph-name="minus" unicode="&#x2212;" horiz-adv-x="1187" 
d="M1055 530h-922v189h922v-189z" />
    <glyph glyph-name="approxequal" unicode="&#x2248;" horiz-adv-x="1187" 
d="M1055 909v-180q-79 -41 -205 -41q-106 0 -244 50t-237 50q-163 0 -236 -63v178q79 64 236 64q97 0 244 -51q144 -50 239 -50q135 0 203 43zM1055 598v-180q-82 -43 -205 -43q-108 0 -244 51t-237 51q-163 0 -236 -63v178q78 63 236 63q100 0 244 -50t239 -50
q135 0 203 43z" />
    <glyph glyph-name="notequal" unicode="&#x2260;" horiz-adv-x="1187" 
d="M750 760l-119 -209h424v-186h-531l-94 -164h-194l94 164h-197v186h303l121 209h-424v186h531l98 170h192l-98 -170h199v-186h-305z" />
    <glyph glyph-name="lessequal" unicode="&#x2264;" horiz-adv-x="870" 
d="M795 412l-729 262v203l729 262v-219l-494 -146l494 -149v-213zM795 362v-186h-727v186h727z" />
    <glyph glyph-name="greaterequal" unicode="&#x2265;" horiz-adv-x="870" 
d="M575 774l-493 146v219l727 -262v-203l-727 -262v213zM807 176h-725v186h725v-186z" />
    <glyph glyph-name="K.ss03" horiz-adv-x="1445" 
d="M1432 0h-275l-465 621l-311 -351v-270h-219v1372h219v-819l725 819h252l-520 -586z" />
    <glyph glyph-name="Kcommaaccent.ss03" horiz-adv-x="1445" 
d="M1432 0h-275l-465 621l-311 -351v-270h-219v1372h219v-819l725 819h252l-520 -586zM641 -92h231l-172 -299h-161z" />
    <glyph glyph-name="Q.ss04" horiz-adv-x="1626" 
d="M1296 -348l-274 350q-102 -31 -209 -31q-301 0 -508 207t-207 506q0 301 207 509t508 208q300 0 509 -209q208 -208 208 -508q0 -176 -78 -328q-78 -151 -213 -247l363 -457h-306zM319 684q0 -214 143 -360t351 -146t352 146t144 360q0 217 -144 364q-143 146 -352 146
t-351 -146q-143 -148 -143 -364z" />
    <glyph glyph-name="I.ss05" horiz-adv-x="917" 
d="M569 1174v-975h301v-199h-823v199h301v975h-301v198h823v-198h-301z" />
    <glyph glyph-name="IJ.ss05" horiz-adv-x="2136" 
d="M870 1372v-198h-301v-975h301v-199h-823v199h301v975h-301v198h823zM1991 1372v-880q0 -228 -145 -375q-144 -146 -376 -146q-210 0 -347 122t-167 325l209 43q18 -131 98 -211t207 -80q134 0 217 90q82 89 82 232v682h-466v198h688z" />
    <glyph glyph-name="Iacute.ss05" horiz-adv-x="917" 
d="M559 1518h-182l149 290h250zM569 1174v-975h301v-199h-823v199h301v975h-301v198h823v-198h-301z" />
    <glyph glyph-name="Icircumflex.ss05" horiz-adv-x="917" 
d="M336 1501h-213l235 297h203l238 -297h-215l-123 158zM569 1174v-975h301v-199h-823v199h301v975h-301v198h823v-198h-301z" />
    <glyph glyph-name="Idieresis.ss05" horiz-adv-x="917" 
d="M248 1524q-60 0 -97 37q-38 38 -38 94q0 53 39 93t96 40t96 -40t39 -93q0 -56 -38 -94q-37 -37 -97 -37zM672 1524q-61 0 -98 37t-37 94q0 54 38 93q39 40 97 40q57 0 96 -40t39 -93q0 -56 -38 -94q-37 -37 -97 -37zM569 1174v-975h301v-199h-823v199h301v975h-301v198
h823v-198h-301z" />
    <glyph glyph-name="Idotaccent.ss05" horiz-adv-x="917" 
d="M457 1540q-58 0 -95 37q-36 36 -36 92q0 53 38 91t93 38q54 0 94 -38q39 -38 39 -91q0 -54 -38 -92q-37 -37 -95 -37zM569 1174v-975h301v-199h-823v199h301v975h-301v198h823v-198h-301z" />
    <glyph glyph-name="Igrave.ss05" horiz-adv-x="917" 
d="M365 1518l-218 290h250l150 -290h-182zM569 1174v-975h301v-199h-823v199h301v975h-301v198h823v-198h-301z" />
    <glyph glyph-name="Imacron.ss05" horiz-adv-x="917" 
d="M768 1540h-616v174h616v-174zM569 1174v-975h301v-199h-823v199h301v975h-301v198h823v-198h-301z" />
    <glyph glyph-name="Iogonek.ss05" horiz-adv-x="917" 
d="M569 1174v-975h301v-199h-303q-65 -72 -82 -91q-14 -17 -35 -53q-18 -31 -18 -61q0 -67 70 -67q28 0 98 22l12 -133q-84 -37 -157 -37q-77 0 -130 44t-53 132q0 64 33 119q33 56 113 125h-371v199h301v975h-301v198h823v-198h-301z" />
    <glyph glyph-name="J.ss05" horiz-adv-x="1220" 
d="M1073 1372v-880q0 -230 -144 -375q-144 -146 -376 -146q-210 0 -347 122t-167 325l209 43q18 -132 97 -211q80 -80 208 -80q133 0 216 90q83 91 83 232v682h-467v198h688z" />
    <glyph glyph-name="i.loclTRK" horiz-adv-x="587" 
d="M293 1442q54 0 94 -38q39 -38 39 -91q0 -54 -38 -92q-37 -37 -95 -37q-57 0 -94 37t-37 92q0 53 38 91t93 38zM401 0h-213v1016h213v-1016z" />
    <glyph glyph-name="germandbls.case" horiz-adv-x="2555" 
d="M641 1401q207 0 349 -105q142 -104 179 -282l-219 -45q-18 109 -104 175t-209 66q-122 0 -195 -58t-73 -151q0 -71 42 -112q44 -42 132 -60l297 -63q352 -78 352 -375q0 -192 -144 -306t-382 -114q-227 0 -385 108q-159 109 -183 300l234 49q24 -130 119 -196t235 -66
q136 0 212 58q77 59 77 155q0 78 -44 119q-43 40 -149 63l-299 62q-346 79 -346 372q0 183 138 294q139 112 366 112zM1898 1401q208 0 350 -105q142 -104 179 -282l-219 -45q-18 108 -105 175q-85 66 -209 66q-121 0 -194 -58q-74 -59 -74 -151q0 -71 42 -112
q44 -42 132 -60l297 -63q352 -78 352 -375q0 -192 -144 -306t-382 -114q-227 0 -385 108t-182 300l233 49q24 -130 119 -196t236 -66q136 0 212 58t76 155q0 78 -44 119t-148 63l-299 62q-346 79 -346 372q0 183 138 294q139 112 365 112z" />
    <glyph glyph-name="a.ss01" horiz-adv-x="1118" 
d="M569 1044q200 0 316 -100t116 -282v-662h-202v117q-131 -146 -346 -146q-169 0 -275 89q-104 88 -104 233t107 233t300 88h318v31q0 99 -60 156t-157 57q-213 0 -248 -176l-203 43q27 143 148 231t290 88zM485 143q130 0 222 80t92 195v33h-322q-93 0 -145 -42
q-53 -42 -53 -112q0 -71 56 -112q57 -42 150 -42z" />
    <glyph glyph-name="aacute.ss01" horiz-adv-x="1118" 
d="M672 1161h-183l150 291h250zM569 1044q200 0 316 -100t116 -282v-662h-202v117q-131 -146 -346 -146q-169 0 -275 89q-104 88 -104 233t107 233t300 88h318v31q0 99 -60 156t-157 57q-213 0 -248 -176l-203 43q27 143 148 231t290 88zM485 143q130 0 222 80t92 195v33
h-322q-93 0 -145 -42q-53 -42 -53 -112q0 -71 56 -112q57 -42 150 -42z" />
    <glyph glyph-name="abreve.ss01" horiz-adv-x="1118" 
d="M571 1130q-146 0 -232 79q-87 79 -87 212h178q0 -62 41 -103q40 -40 100 -40q63 0 103 40q41 41 41 103h176q0 -133 -87 -212q-86 -79 -233 -79zM569 1044q200 0 316 -100t116 -282v-662h-202v117q-131 -146 -346 -146q-169 0 -275 89q-104 88 -104 233t107 233t300 88
h318v31q0 99 -60 156t-157 57q-213 0 -248 -176l-203 43q27 143 148 231t290 88zM485 143q130 0 222 80t92 195v33h-322q-93 0 -145 -42q-53 -42 -53 -112q0 -71 56 -112q57 -42 150 -42z" />
    <glyph glyph-name="acircumflex.ss01" horiz-adv-x="1118" 
d="M449 1145h-213l235 297h203l237 -297h-215l-123 158zM569 1044q200 0 316 -100t116 -282v-662h-202v117q-131 -146 -346 -146q-169 0 -275 89q-104 88 -104 233t107 233t300 88h318v31q0 99 -60 156t-157 57q-213 0 -248 -176l-203 43q27 143 148 231t290 88zM485 143
q130 0 222 80t92 195v33h-322q-93 0 -145 -42q-53 -42 -53 -112q0 -71 56 -112q57 -42 150 -42z" />
    <glyph glyph-name="adieresis.ss01" horiz-adv-x="1118" 
d="M360 1167q-60 0 -97 37q-38 38 -38 94q0 54 39 94t96 40q58 0 97 -40t39 -94q0 -56 -38 -94q-37 -37 -98 -37zM784 1167q-60 0 -97 37q-38 38 -38 94q0 54 39 94t96 40q58 0 97 -40t39 -94q0 -56 -38 -94q-37 -37 -98 -37zM569 1044q200 0 316 -100t116 -282v-662h-202
v117q-131 -146 -346 -146q-169 0 -275 89q-104 88 -104 233t107 233t300 88h318v31q0 99 -60 156t-157 57q-213 0 -248 -176l-203 43q27 143 148 231t290 88zM485 143q130 0 222 80t92 195v33h-322q-93 0 -145 -42q-53 -42 -53 -112q0 -71 56 -112q57 -42 150 -42z" />
    <glyph glyph-name="agrave.ss01" horiz-adv-x="1118" 
d="M477 1161l-217 291h250l149 -291h-182zM569 1044q200 0 316 -100t116 -282v-662h-202v117q-131 -146 -346 -146q-169 0 -275 89q-104 88 -104 233t107 233t300 88h318v31q0 99 -60 156t-157 57q-213 0 -248 -176l-203 43q27 143 148 231t290 88zM485 143q130 0 222 80
t92 195v33h-322q-93 0 -145 -42q-53 -42 -53 -112q0 -71 56 -112q57 -42 150 -42z" />
    <glyph glyph-name="amacron.ss01" horiz-adv-x="1118" 
d="M881 1184h-617v174h617v-174zM569 1044q200 0 316 -100t116 -282v-662h-202v117q-131 -146 -346 -146q-169 0 -275 89q-104 88 -104 233t107 233t300 88h318v31q0 99 -60 156t-157 57q-213 0 -248 -176l-203 43q27 143 148 231t290 88zM485 143q130 0 222 80t92 195v33
h-322q-93 0 -145 -42q-53 -42 -53 -112q0 -71 56 -112q57 -42 150 -42z" />
    <glyph glyph-name="aogonek.ss01" horiz-adv-x="1118" 
d="M1038 -250l13 -133q-84 -37 -158 -37q-77 0 -130 44q-52 43 -52 132q0 65 32 119q33 56 113 125h-57v117q-131 -146 -346 -146q-169 0 -275 89q-104 88 -104 233t107 233t300 88h318v31q0 99 -60 156t-157 57q-213 0 -248 -176l-203 43q27 143 148 231t290 88
q200 0 316 -100t116 -282v-662h5q-65 -72 -82 -91q-17 -20 -36 -53q-18 -31 -18 -61q0 -67 70 -67q28 0 98 22zM485 143q130 0 222 80t92 195v33h-322q-93 0 -145 -42q-53 -42 -53 -112q0 -71 56 -112q57 -42 150 -42z" />
    <glyph glyph-name="aring.ss01" horiz-adv-x="1118" 
d="M571 1120q-93 0 -160 65t-67 154q0 92 67 157t160 65q95 0 162 -65q66 -64 66 -157q0 -92 -66 -155q-67 -64 -162 -64zM571 1436q-41 0 -71 -28q-29 -27 -29 -69q0 -38 29 -67t71 -29q43 0 72 29t29 67q0 42 -29 69q-30 28 -72 28zM569 1044q200 0 316 -100t116 -282
v-662h-202v117q-131 -146 -346 -146q-169 0 -275 89q-104 88 -104 233t107 233t300 88h318v31q0 99 -60 156t-157 57q-213 0 -248 -176l-203 43q27 143 148 231t290 88zM485 143q130 0 222 80t92 195v33h-322q-93 0 -145 -42q-53 -42 -53 -112q0 -71 56 -112q57 -42 150 -42
z" />
    <glyph glyph-name="atilde.ss01" horiz-adv-x="1118" 
d="M463 1288q-31 0 -49 -22q-19 -24 -19 -60h-145q0 126 59 182t140 56q69 0 140 -44t111 -44q31 0 49 24q17 23 17 64h143q0 -129 -57 -186q-56 -56 -139 -56q-74 0 -142 43t-108 43zM569 1044q200 0 316 -100t116 -282v-662h-202v117q-131 -146 -346 -146q-169 0 -275 89
q-104 88 -104 233t107 233t300 88h318v31q0 99 -60 156t-157 57q-213 0 -248 -176l-203 43q27 143 148 231t290 88zM485 143q130 0 222 80t92 195v33h-322q-93 0 -145 -42q-53 -42 -53 -112q0 -71 56 -112q57 -42 150 -42z" />
    <glyph glyph-name="l.ss02" horiz-adv-x="655" 
d="M354 1475v-1184q0 -53 37 -86t94 -33q53 0 123 31l41 -178q-102 -54 -200 -54q-137 0 -223 84q-85 84 -85 224v1196h213z" />
    <glyph glyph-name="lacute.ss02" horiz-adv-x="655" 
d="M344 1620h-182l149 291h250zM354 1475v-1184q0 -53 37 -86t94 -33q53 0 123 31l41 -178q-102 -54 -200 -54q-137 0 -223 84q-85 84 -85 224v1196h213z" />
    <glyph glyph-name="lcaron.ss02" horiz-adv-x="655" 
d="M354 1475v-1184q0 -53 37 -86t94 -33q53 0 123 31l41 -178q-102 -54 -200 -54q-137 0 -223 84q-85 84 -85 224v1196h213zM641 1094h-168v381h215z" />
    <glyph glyph-name="lcommaaccent.ss02" horiz-adv-x="655" 
d="M354 1475v-1184q0 -53 37 -86t94 -33q53 0 123 31l41 -178q-102 -54 -200 -54q-137 0 -223 84q-85 84 -85 224v1196h213zM178 -391l103 299h231l-172 -299h-162z" />
    <glyph glyph-name="ldot.ss02" horiz-adv-x="786" 
d="M375 1475v-1184q0 -53 37 -86t94 -33q53 0 123 31l41 -178q-102 -54 -201 -54q-137 0 -222 84t-85 224v1196h213zM641 836q54 0 94 -38q39 -38 39 -91q0 -55 -38 -93q-36 -36 -95 -36q-58 0 -94 36q-37 37 -37 93q0 53 38 91t93 38z" />
    <glyph glyph-name="lslash.ss02" horiz-adv-x="714" 
d="M668 203l39 -178q-102 -54 -199 -54q-139 0 -223 84t-84 224v260l-140 -84v207l140 83v730h213v-603l161 97v-207l-161 -96v-375q0 -53 36 -86t93 -33q55 0 125 31z" />
    <glyph glyph-name="k.ss03" horiz-adv-x="1245" 
d="M1235 0h-268l-385 432l-207 -223v-209h-213v1475h213v-979l497 520h250l-399 -432z" />
    <glyph glyph-name="kcommaaccent.ss03" horiz-adv-x="1245" 
d="M1235 0h-268l-385 432l-207 -223v-209h-213v1475h213v-979l497 520h250l-399 -432zM547 -92h231l-172 -299h-162z" />
    <glyph glyph-name="f_j" horiz-adv-x="1355" 
d="M1182 1016v-1110q0 -123 -76 -199t-201 -76q-98 0 -188 37l41 187q57 -23 94 -23q50 0 83 28q32 27 32 74v906h-547v-840h-213v840h-166v176h166v121q0 170 103 269q104 99 276 99q102 0 184 -43l-49 -172q-64 25 -121 25q-83 0 -132 -47q-48 -46 -48 -131v-121h762z
M1071 1190q-60 0 -97 37q-38 38 -38 94q0 54 38 94q38 39 97 39q57 0 96 -39t39 -94q0 -56 -38 -94q-37 -37 -97 -37z" />
    <glyph glyph-name="f_t" horiz-adv-x="1579" 
d="M1505 227l64 -178q-127 -78 -250 -78q-167 0 -268 96q-99 95 -99 279v494h-532v-840h-213v840h-166v176h166v121q0 170 103 269q104 99 276 99q102 0 184 -43l-49 -172q-64 25 -121 25q-83 0 -132 -47q-48 -46 -48 -131v-121h532v315h213v-315h348v-176h-348v-480
q0 -92 45 -140t123 -48q89 0 172 55z" />
    <glyph glyph-name="fl.ss02" horiz-adv-x="1400" 
d="M420 1016h338v-176h-338v-840h-213v840h-166v176h166v121q0 170 102 269t273 99q91 0 174 -37l-51 -174q-53 21 -109 21q-79 0 -128 -47q-48 -46 -48 -131v-121zM1352 203l41 -178q-102 -54 -201 -54q-139 0 -223 84t-84 224v1196h213v-1184q0 -53 37 -86t94 -33
q53 0 123 31z" />
    <glyph glyph-name="zero.tf" 
d="M625 1401q250 0 403 -198q154 -199 154 -517t-154 -517q-153 -198 -403 -198q-249 0 -402 198t-153 517t153 517t402 198zM625 174q150 0 242 141q91 140 91 371q0 230 -91 370t-242 140q-153 0 -242 -140q-90 -141 -90 -370q0 -230 90 -371t242 -141z" />
    <glyph glyph-name="one.tf" 
d="M1124 199v-199h-966v199h401v911l-391 -197v201l471 258h135v-1173h350z" />
    <glyph glyph-name="two.tf" 
d="M1108 199v-199h-930v141l477 459q84 80 90 86q29 29 68 78q42 52 56 100q16 53 16 109q0 105 -70 172q-68 65 -182 65q-122 0 -191 -73q-70 -74 -77 -215l-203 41q7 200 138 319t337 119q205 0 332 -118t127 -306q0 -139 -71 -249q-69 -107 -239 -271l-270 -258h592z" />
    <glyph glyph-name="three.tf" 
d="M932 696q97 -35 149 -111q54 -79 54 -186q0 -191 -133 -310q-131 -118 -345 -118q-215 0 -351 121q-135 120 -152 320l206 41q12 -134 90 -212q77 -77 207 -77q122 0 198 64q77 65 77 169q0 97 -68 154t-188 57h-148v176h136q114 0 179 56q64 55 64 147q0 101 -69 161
t-185 60q-120 0 -196 -73t-84 -211l-201 41q17 197 146 316q130 120 335 120q204 0 331 -115q126 -114 126 -299q0 -102 -47 -179q-47 -78 -131 -112z" />
    <glyph glyph-name="four.tf" 
d="M1176 303h-177v-303h-213v303h-700v205l627 864h286v-889h177v-180zM786 483v668l-479 -668h479z" />
    <glyph glyph-name="five.tf" 
d="M414 858h245q209 0 334 -114t125 -312q0 -206 -135 -333q-136 -128 -358 -128q-215 0 -359 126q-143 125 -143 347l211 41q0 -151 82 -233t213 -82q127 0 204 71q76 70 76 187q0 108 -72 171t-194 63h-446l26 710h838v-198h-635z" />
    <glyph glyph-name="six.tf" 
d="M692 889q217 0 346 -126t129 -327q0 -203 -137 -334t-356 -131q-257 0 -404 182t-147 504q0 400 184 590q151 154 373 154q171 0 290 -82q120 -82 163 -232l-211 -40q-51 161 -250 161q-130 0 -221 -98q-128 -139 -121 -395q59 82 155 127q100 47 207 47zM670 168
q116 0 197 78t81 192q0 116 -81 193q-80 76 -197 76q-118 0 -198 -78q-79 -78 -79 -195q0 -116 81 -191t196 -75z" />
    <glyph glyph-name="seven.tf" 
d="M1139 1372v-155l-598 -1217h-248l588 1174h-791v198h1049z" />
    <glyph glyph-name="eight.tf" 
d="M874 698q133 -40 204 -131t71 -200q0 -177 -140 -286q-142 -110 -368 -110q-231 0 -373 110q-141 109 -141 286q0 110 72 200q73 91 204 131q-116 44 -175 130q-60 87 -60 202q0 166 129 268q130 103 344 103q210 0 340 -103q129 -102 129 -268q0 -112 -60 -201
q-58 -86 -176 -131zM637 1223q-108 0 -180 -57t-72 -154q0 -96 71 -152q70 -55 181 -55t183 57q73 58 73 154q0 95 -73 151t-183 56zM637 158q117 0 194 59q78 60 78 164q0 100 -76 160q-75 59 -196 59q-117 0 -193 -60q-75 -59 -75 -163t75 -161q76 -58 193 -58z" />
    <glyph glyph-name="nine.tf" 
d="M575 1399q257 0 404 -180t147 -506q0 -400 -184 -590q-151 -154 -373 -154q-170 0 -289 82q-121 83 -161 232l211 41q50 -160 248 -160q131 0 221 96q128 139 121 395q-57 -79 -155 -126q-96 -46 -208 -46q-217 0 -346 126t-129 325q0 203 137 334t356 131zM580 664
q119 0 197 77q79 78 79 195q0 116 -81 191t-195 75q-117 0 -197 -77t-80 -193q0 -115 80 -192q79 -76 197 -76z" />
    <glyph glyph-name="zero.zero.tf" 
d="M625 1401q250 0 403 -198q154 -199 154 -517t-154 -517q-153 -198 -403 -198q-249 0 -402 198t-153 517t153 517t402 198zM625 1196q-153 0 -242 -140q-90 -141 -90 -370q0 -132 33 -246l505 662q-84 94 -206 94zM625 174q150 0 242 141q91 140 91 371q0 149 -40 260
l-510 -665q89 -107 217 -107z" />
    <glyph glyph-name="zero.zero" horiz-adv-x="1331" 
d="M682 1401q261 0 420 -198q160 -199 160 -517t-160 -517q-159 -198 -420 -198t-420 198q-160 199 -160 517t160 517q159 198 420 198zM682 1198q-162 0 -259 -141q-97 -140 -97 -371q0 -127 32 -235l521 675q-84 72 -197 72zM682 174q162 0 259 141q97 140 97 371
q0 181 -59 303l-537 -698q99 -117 240 -117z" />
    <glyph glyph-name="zero.dnom" horiz-adv-x="819" 
d="M410 776q150 0 242 -108q91 -107 91 -289q0 -181 -91 -290t-242 -109q-150 0 -241 109t-91 290q0 182 91 289q91 108 241 108zM410 119q77 0 120 68t43 192q0 119 -43 186q-44 68 -120 68q-74 0 -119 -68q-45 -67 -45 -186q0 -122 45 -191t119 -69z" />
    <glyph glyph-name="one.dnom" horiz-adv-x="493" 
d="M362 0h-157v559l-160 -100v168l215 141h102v-768z" />
    <glyph glyph-name="two.dnom" horiz-adv-x="698" 
d="M303 137h322v-137h-572v104l291 246q72 62 99 99q28 39 28 86q0 53 -36 85q-35 31 -93 31q-65 0 -102 -43q-36 -42 -41 -116l-136 30q0 118 76 190t203 72t205 -66t78 -181q0 -80 -45 -143q-41 -57 -138 -140z" />
    <glyph glyph-name="three.dnom" horiz-adv-x="700" 
d="M520 391q119 -53 119 -170q0 -105 -81 -174q-82 -70 -208 -70q-124 0 -208 70q-82 69 -87 186l133 33q4 -73 49 -114q44 -41 115 -41q65 0 102 31q38 32 38 83q0 50 -38 77q-39 28 -100 28h-78v112h68q59 0 98 27t39 72q0 46 -37 76t-96 30q-66 0 -106 -38
q-39 -38 -41 -107l-138 33q7 110 85 175q76 64 198 64q124 0 201 -65q78 -66 78 -164q0 -107 -105 -154z" />
    <glyph glyph-name="four.dnom" horiz-adv-x="765" 
d="M711 156h-111v-158h-147v158h-406v143l371 467h182v-481h111v-129zM453 285v317l-254 -317h254z" />
    <glyph glyph-name="five.dnom" horiz-adv-x="702" 
d="M238 485h155q112 0 184 -66t72 -177q0 -118 -81 -190t-212 -72q-121 0 -204 65q-85 67 -97 162l150 26q12 -54 53 -88q39 -32 98 -32q63 0 102 32q40 33 40 91t-42 88t-108 30h-258l21 408h499v-139h-364z" />
    <glyph glyph-name="six.dnom" horiz-adv-x="720" 
d="M403 496q117 0 191 -72t74 -184q0 -115 -80 -189t-205 -74q-154 0 -240 100t-86 277q0 225 111 336q84 84 215 84q110 0 183 -53t91 -154l-153 -22q-16 100 -125 100q-64 0 -107 -49q-48 -51 -59 -162q79 62 190 62zM377 104q62 0 102 40q41 41 41 100t-41 100t-102 41
q-66 0 -107 -41t-41 -100q0 -60 42 -100q41 -40 106 -40z" />
    <glyph glyph-name="seven.dnom" horiz-adv-x="595" 
d="M575 766v-121l-296 -647h-170l297 629h-392v139h561z" />
    <glyph glyph-name="eight.dnom" horiz-adv-x="743" 
d="M522 395q156 -47 156 -194q0 -97 -84 -160q-85 -64 -221 -64q-135 0 -222 64q-85 63 -85 160q0 149 153 196q-123 47 -123 168q0 89 80 149t199 60q115 0 195 -60q79 -60 79 -149q0 -121 -127 -170zM373 659q-60 0 -99 -30q-38 -29 -38 -80q0 -45 39 -74q42 -31 98 -31
q57 0 95 30q39 31 40 75q0 50 -38 80t-97 30zM373 104q61 0 102 32t41 83q0 49 -39 82t-104 33q-66 0 -107 -32t-41 -83t41 -83t107 -32z" />
    <glyph glyph-name="nine.dnom" horiz-adv-x="720" 
d="M340 774q155 0 240 -98q86 -100 86 -277q0 -223 -111 -336q-86 -86 -217 -86q-107 0 -182 55t-93 152l154 25q18 -100 125 -100q63 0 107 47q48 51 59 163q-80 -63 -191 -63q-115 0 -190 73q-74 72 -74 185q0 115 80 187q81 73 207 73zM346 369q63 0 106 41q42 40 42 100
q0 59 -43 99t-105 40q-63 0 -104 -41t-41 -100q0 -58 42 -98q43 -41 103 -41z" />
    <glyph glyph-name="zero.numr" horiz-adv-x="819" 
d="M410 1393q150 0 242 -109q91 -107 91 -289q0 -180 -91 -289q-92 -110 -242 -110q-149 0 -241 110q-91 109 -91 289q0 182 91 289q92 109 241 109zM410 735q76 0 120 69q43 68 43 191q0 120 -43 187t-120 67q-74 0 -119 -67q-45 -68 -45 -187q0 -121 45 -190
q46 -70 119 -70z" />
    <glyph glyph-name="one.numr" horiz-adv-x="493" 
d="M362 604h-157v559l-160 -100v168l215 141h102v-768z" />
    <glyph glyph-name="two.numr" horiz-adv-x="698" 
d="M303 745h322v-137h-572v105l291 245q72 62 99 99q28 39 28 86q0 53 -36 85q-37 32 -93 32q-65 0 -102 -43q-36 -42 -41 -117l-136 30q0 118 76 190q78 73 203 73q126 0 205 -67q78 -66 78 -181q0 -80 -45 -143q-41 -57 -138 -140z" />
    <glyph glyph-name="three.numr" horiz-adv-x="700" 
d="M520 1010q119 -53 119 -170q0 -104 -81 -173t-208 -69q-126 0 -208 69q-83 69 -87 185l133 33q5 -74 49 -115t115 -41q64 0 102 32t38 83q0 50 -38 77q-37 27 -100 27h-78v113h68q60 0 98 26q39 27 39 72q0 47 -37 77t-96 30q-66 0 -106 -38q-39 -38 -41 -108l-138 33
q7 110 85 175q77 65 198 65q123 0 201 -66t78 -164q0 -107 -105 -153z" />
    <glyph glyph-name="four.numr" horiz-adv-x="765" 
d="M711 762h-111v-156h-147v156h-406v143l371 467h182v-481h111v-129zM453 891v317l-254 -317h254z" />
    <glyph glyph-name="five.numr" horiz-adv-x="702" 
d="M238 1096h155q111 0 184 -67q72 -66 72 -177q0 -117 -81 -189q-82 -73 -212 -73q-121 0 -204 65q-85 67 -97 162l150 27q12 -54 53 -88q40 -33 98 -33q62 0 102 33t40 90q0 58 -42 88q-43 31 -108 31h-258l21 407h499v-139h-364z" />
    <glyph glyph-name="six.numr" horiz-adv-x="720" 
d="M403 1114q117 0 191 -72t74 -184q0 -115 -80 -187q-81 -73 -205 -73q-155 0 -240 98q-86 100 -86 277q0 225 111 336q84 84 215 84q109 0 183 -54q73 -53 91 -153l-153 -23q-17 101 -125 101q-63 0 -107 -50q-48 -53 -59 -161q77 61 190 61zM377 723q62 0 102 40
q41 41 41 99q0 60 -41 101t-102 41q-66 0 -107 -41t-41 -101q0 -58 42 -99q41 -40 106 -40z" />
    <glyph glyph-name="seven.numr" horiz-adv-x="595" 
d="M575 1372v-121l-296 -645h-170l297 627h-392v139h561z" />
    <glyph glyph-name="eight.numr" horiz-adv-x="743" 
d="M522 1014q156 -46 156 -195q0 -96 -84 -159q-83 -62 -221 -62t-222 62q-85 63 -85 159q0 151 153 197q-123 46 -123 168q0 88 80 148q81 61 199 61q114 0 195 -61q79 -60 79 -148q0 -121 -127 -170zM373 1278q-59 0 -99 -31q-38 -29 -38 -80q0 -44 39 -73q42 -31 98 -31
q57 0 95 30q39 31 40 74q0 50 -38 80q-39 31 -97 31zM373 723q61 0 102 32t41 83q0 49 -39 82q-38 32 -104 32q-67 0 -107 -31q-41 -32 -41 -83t41 -83t107 -32z" />
    <glyph glyph-name="nine.numr" horiz-adv-x="720" 
d="M340 1393q154 0 240 -99q86 -100 86 -276q0 -224 -111 -336q-84 -84 -217 -84q-108 0 -182 53q-75 54 -93 152l154 24q18 -100 125 -100q63 0 107 47q48 51 59 164q-81 -64 -191 -64q-115 0 -190 73q-74 72 -74 186q0 115 80 187q81 73 207 73zM346 987q63 0 106 41
q42 40 42 100t-43 100t-105 40q-63 0 -104 -41t-41 -101q0 -58 42 -98q43 -41 103 -41z" />
    <glyph glyph-name="backslash.case" horiz-adv-x="804" 
d="M752 0h-211l-486 1372h209z" />
    <glyph glyph-name="periodcentered.case" horiz-adv-x="452" 
d="M227 797q58 0 96 -38q37 -37 37 -91q0 -56 -37 -93q-36 -36 -96 -36q-59 0 -96 36q-39 37 -39 93q0 54 39 91q40 38 96 38z" />
    <glyph glyph-name="bullet.case" horiz-adv-x="839" 
d="M420 991q139 0 233 -94q95 -95 95 -223q0 -134 -94 -225t-234 -91q-141 0 -235 91q-93 90 -93 225q0 129 94 223t234 94z" />
    <glyph glyph-name="colon.case" horiz-adv-x="452" 
d="M227 1122q58 0 96 -38q37 -37 37 -91q0 -55 -37 -92t-96 -37q-58 0 -96 37q-39 37 -39 92q0 53 39 91q40 38 96 38zM227 453q59 0 96 -39q37 -38 37 -92q0 -56 -37 -93q-36 -36 -96 -36q-59 0 -96 36q-39 37 -39 93q0 53 39 92t96 39z" />
    <glyph glyph-name="exclamdown.case" horiz-adv-x="571" 
d="M285 1120q-59 0 -96 39q-37 38 -37 92q0 55 37 92t96 37q56 0 96 -38q39 -38 39 -91t-39 -92t-96 -39zM170 63l8 881h217l8 -881v-63h-233v63z" />
    <glyph glyph-name="questiondown.case" horiz-adv-x="1081" 
d="M555 1126q-57 0 -95 38t-38 91q0 55 38 93q36 36 95 36t96 -36q39 -38 39 -93q0 -53 -39 -91q-40 -38 -96 -38zM811 446l205 -38q-11 -181 -148 -306t-344 -125q-210 0 -337 121q-128 122 -128 316q0 160 108 265t288 126v135h196v-299h-121q-114 0 -189 -63t-75 -164
q0 -108 72 -177t186 -69q121 0 197 76q75 75 90 202z" />
    <glyph glyph-name="semicolon.case" horiz-adv-x="514" 
d="M287 1122q56 0 96 -38q39 -38 39 -91q0 -55 -39 -92q-38 -37 -96 -37q-59 0 -96 37t-37 92q0 54 37 91q38 38 96 38zM188 -270h-161l129 544h247v-6z" />
    <glyph glyph-name="slash.case" horiz-adv-x="907" 
d="M289 0h-193l520 1372h193z" />
    <glyph glyph-name="braceleft.case" horiz-adv-x="874" 
d="M487 1090v-183q0 -81 -35 -138t-100 -85q135 -60 135 -225v-176q0 -45 27 -74t70 -29h192v-180h-217q-125 0 -202 72q-76 72 -76 190v172q0 119 -160 154l-53 16v160l53 16q160 30 160 152v178q0 118 76 190q77 72 202 72h217v-180h-192q-43 0 -70 -29t-27 -73z" />
    <glyph glyph-name="braceright.case" horiz-adv-x="874" 
d="M807 764v-160l-53 -16q-160 -35 -160 -154v-172q0 -118 -77 -190t-202 -72h-217v180h193q42 0 69 29t27 74v176q0 79 36 138q36 58 99 85q-135 60 -135 225v183q0 44 -27 73t-69 29h-193v180h217q125 0 202 -72t77 -190v-178q0 -122 160 -152z" />
    <glyph glyph-name="bracketleft.case" horiz-adv-x="815" 
d="M369 1188v-1004h350v-184h-557v1372h557v-184h-350z" />
    <glyph glyph-name="bracketright.case" horiz-adv-x="815" 
d="M653 1372v-1372h-555v184h351v1004h-351v184h555z" />
    <glyph glyph-name="parenleft.case" horiz-adv-x="677" 
d="M449 1401l133 -129q-254 -269 -254 -588q0 -163 60 -304q60 -140 194 -282l-133 -129q-351 303 -351 715q0 417 351 717z" />
    <glyph glyph-name="parenright.case" horiz-adv-x="677" 
d="M98 1272l133 129q351 -303 351 -717q0 -411 -351 -715l-133 129q254 275 254 586q0 166 -61 306q-61 139 -193 282z" />
    <glyph glyph-name="emdash.case" horiz-adv-x="2129" 
d="M2007 596h-1884v164h1884v-164z" />
    <glyph glyph-name="endash.case" horiz-adv-x="1269" 
d="M1147 596h-1024v164h1024v-164z" />
    <glyph glyph-name="hyphen.case" horiz-adv-x="913" 
d="M791 586h-668v186h668v-186z" />
    <glyph glyph-name="guillemotleft.case" horiz-adv-x="907" 
d="M51 659l240 365h213l-240 -365l240 -364h-213zM406 659l239 365h213l-240 -365l240 -364h-213z" />
    <glyph glyph-name="guillemotright.case" horiz-adv-x="907" 
d="M51 295l240 364l-240 365h213l240 -365l-240 -364h-213zM403 295l240 364l-240 365h213l240 -365l-240 -364h-213z" />
    <glyph glyph-name="guilsinglleft.case" horiz-adv-x="555" 
d="M51 659l240 365h213l-240 -365l240 -364h-213z" />
    <glyph glyph-name="guilsinglright.case" horiz-adv-x="555" 
d="M51 295l240 364l-240 365h213l240 -365l-240 -364h-213z" />
    <glyph glyph-name="cent.tf" 
d="M680 842v-668q169 33 229 207l197 -51q-37 -144 -151 -238q-113 -94 -267 -115v-243h-180v246q-188 34 -311 178t-123 350t124 349q125 144 310 177v256h180v-252q150 -21 263 -113q115 -94 155 -237l-205 -59q-46 178 -221 213zM283 508q0 -125 63 -211q64 -87 168 -117
v656q-104 -28 -168 -118q-63 -88 -63 -210z" />
    <glyph glyph-name="dollar.tf" 
d="M1133 414q0 -164 -112 -270q-110 -104 -294 -121v-228h-182v236q-175 27 -294 133q-120 107 -132 268l217 43q15 -206 217 -258v395l-74 17q-143 27 -234 108q-93 83 -93 232q0 158 107 259q108 102 286 120v229h182v-234q167 -27 272 -130q105 -104 117 -259l-213 -39
q-1 93 -53 157q-51 63 -129 87v-379l82 -16q330 -73 330 -350zM553 817v350q-84 -17 -132 -66t-48 -120q0 -123 157 -160zM721 575v-366q94 15 149 67q56 53 56 129q0 129 -176 164z" />
    <glyph glyph-name="Euro.tf" 
d="M672 178q209 0 299 301l221 -41q-50 -214 -188 -340q-139 -127 -332 -127q-204 0 -341 127q-140 129 -186 359h-108v157h90q-2 30 -2 72l2 66h-90v155h108q45 235 184 365q138 129 343 129q195 0 333 -129q137 -128 187 -348l-219 -37q-37 149 -117 229t-184 80
q-110 0 -189 -74q-77 -73 -112 -215h434l-39 -155h-416l-2 -66q0 -42 2 -72h387l-37 -157h-327q35 -136 112 -207q78 -72 187 -72z" />
    <glyph glyph-name="florin.tf" 
d="M977 1208q-83 0 -141 -50q-58 -51 -76 -144l-45 -248h352v-176h-383l-111 -610q-28 -149 -124 -232q-100 -86 -240 -86q-97 0 -186 53l69 172q60 -24 119 -24q57 0 99 33q41 33 52 84l111 610h-231v176h262l45 248q33 178 149 281q118 104 291 104q135 0 236 -74
l-74 -174q-77 57 -174 57z" />
    <glyph glyph-name="sterling.tf" 
d="M1165 199v-199h-1095v135l170 41v346h-170v199h170v225q0 203 127 329q128 126 335 126q208 0 329 -121q122 -122 132 -332l-198 -33q-33 275 -263 275q-108 0 -176 -68q-67 -67 -67 -176v-225h393v-199h-393v-323h706z" />
    <glyph glyph-name="yen.tf" 
d="M811 668h264v-164h-344v-129h344v-164h-344v-211h-221v211h-336v164h336v129h-336v164h256l-403 704h243l351 -647l348 647h252z" />
    <glyph glyph-name="approxequal.tf" 
d="M1085 909v-180q-79 -41 -204 -41q-106 0 -244 50t-238 50q-161 0 -235 -63v178q79 64 235 64q101 0 246 -51q142 -50 238 -50q134 0 202 43zM1085 598v-180q-82 -43 -204 -43q-107 0 -244 51t-238 51q-161 0 -235 -63v178q78 63 235 63q104 0 246 -50t238 -50
q134 0 202 43z" />
    <glyph glyph-name="divide.tf" 
d="M616 1104q58 0 97 -39t39 -92q0 -55 -39 -92q-38 -37 -97 -37q-58 0 -95 37q-38 38 -38 92q0 52 38 92q37 39 95 39zM1085 530h-921v189h921v-189zM616 377q58 0 97 -39t39 -92q0 -54 -39 -91q-40 -38 -97 -38q-58 0 -95 37q-38 38 -38 92q0 52 38 92q37 39 95 39z" />
    <glyph glyph-name="equal.tf" 
d="M1085 760h-921v186h921v-186zM1085 365h-921v186h921v-186z" />
    <glyph glyph-name="greater.tf" 
d="M782 662l-512 192v227l764 -311v-221l-764 -307v223z" />
    <glyph glyph-name="greaterequal.tf" 
d="M766 774l-494 146v219l727 -262v-203l-727 -262v213zM997 176h-725v186h725v-186z" />
    <glyph glyph-name="less.tf" 
d="M979 242l-762 307v221l762 311v-227l-512 -192l512 -197v-223z" />
    <glyph glyph-name="lessequal.tf" 
d="M981 412l-727 262v203l727 262v-219l-494 -146l494 -149v-213zM981 362v-186h-725v186h725z" />
    <glyph glyph-name="minus.tf" 
d="M1085 530h-921v189h921v-189z" />
    <glyph glyph-name="multiply.tf" 
d="M760 625l282 -281l-135 -137l-282 282l-285 -282l-135 137l282 281l-282 282l135 135l285 -282l282 282l135 -135z" />
    <glyph glyph-name="notequal.tf" 
d="M780 760l-118 -209h423v-186h-530l-94 -164h-195l94 164h-196v186h303l121 209h-424v186h530l99 170h192l-98 -170h198v-186h-305z" />
    <glyph glyph-name="plus.tf" 
d="M1085 530h-366v-372h-189v372h-366v189h366v373h189v-373h366v-189z" />
    <glyph glyph-name="plusminus.tf" 
d="M1085 860v-186h-366v-322h-189v322h-366v186h366v352h189v-352h366zM164 186h921v-186h-921v186z" />
    <glyph glyph-name="bar.case" horiz-adv-x="528" 
d="M369 -84h-207v1540h207v-1540z" />
    <glyph glyph-name="at.case" horiz-adv-x="1947" 
d="M1358 1051v-592q0 -55 38 -88t95 -33q99 0 148 108q51 111 51 250q0 288 -204 474t-503 186q-310 0 -518 -202q-207 -201 -207 -507q0 -304 205 -505t498 -201q282 0 495 155l72 -112q-105 -81 -259 -128q-151 -46 -304 -46q-354 0 -600 237t-246 598t247 599
q248 239 617 239q353 0 601 -221q247 -220 247 -555q0 -123 -33 -231q-33 -107 -118 -186t-210 -79q-186 0 -239 141q-102 -135 -299 -135q-176 0 -294 117t-118 305q0 191 119 310q118 118 293 118q177 0 285 -125v109h141zM952 360q108 0 187 77q78 77 78 204
q0 125 -78 202q-79 77 -187 77q-111 0 -188 -76q-78 -76 -78 -203q0 -128 79 -204q80 -77 187 -77z" />
    <glyph glyph-name="caron.alt" horiz-adv-x="1228" 
d="M700 950h-168v381h216z" />
    </font>
</defs>
</svg>
